westworld S02E05 westworld Hindi handmaid 13 reasons why S02 Seal Team girlsdoporn 473 13 Reasons Why dtone ready player one krypton ethd Jackass supergirl The Walking Dead star trek discovery español suits silicon valley red sparrow modern family Big bang theory big bang theory español deadpool 2 2018 the originals Greys Anatomy legion etrg the secret life of pets fear the walking dead brooklyn nine nine the americans the 100 Deadpool ddr ettv Gotham blindspot etmovies fgt The Expanse S03E07 FAMILY GUY quantico death wish 2018 young sheldon siren Supernatural Lucifer the originals s05e06 humans Colony survivor into the badlands Deep State Deadpool 2 Avengers infinity war 2018 Lost in Space 2018 s01e07 American Crime Story Ncis homeland THE EXPANSE Black Panther arrow español evo legion s02e08 expanse the handmaids tale Flash arrow the flash Billions 
Warning! Use a VPN When Downloading Torrents!
Your IP Address is 5.62.159.230. Location is Germany
Your Internet Provider is tracking your torrent activity! Hide your IP ADDRESS with a VPN!
We strongly recommend using Trust.Zone VPN to anonymize your torrenting. It's FREE!
Get VPN Now for FREE!
ETTV Recommended TV Shows
Colony.S03E04.HDTV.x264-SVA[ettv] torrent
Humans.S03E02.HDTV.x264-MTB[ettv] torrent
Quantico.S03E04.HDTV.x264-KILLERS[ettv] torrent
Siren.2018.S01E10.WEB.x264-TBS[ettv] torrent

ETTV Recommended Xvid
eHero.2018.HDRip.XViD-ETRG torrent
A.Wrinkle.in.Time.2018.DVDRip.XviD.AC3-EVO torrent
Darkness.Wakes.2018.HDRip.XviD.AC3-EVO torrent
In Darkness 2018.HDRip.XViD-ETRG torrent

ETTV Recommended HD
In Darkness 2018 1080p WEB-DL DD5 1 H264-CMRG[EtHD] torrent
Future.World.2018.1080p.WEB-DL.H264.AC3-EVO[EtHD] torrent
Jurassic Park 1993 UHD 2160p Blu-ray x265 HDR DTS-X 7.1-DTOne torrent
Jurassic.World.2015.UHD.2160p.Blu-ray.x265.HDR..DTS-X.7.1(En+Hin)-DTOne torrent

ETTV Recommended Cam
Avengers Infinity War 2018 NEW HD-TS.XViD.AC3-ETRG torrent
Breaking in 2018 HDCAM ENG X264-THAN0S torrent
Kings 2018 HDCAM ENG X264-THAN0S torrent
Solo.A Star Wars Story.2018.HDCAM.XViD.AC3-ETRG torrent

ETTV Recommended Foreign
Kaalakaandi (2018) 1080P UntoucheD WEB HD - AVC - AAC - DTOne Exclusive.mp4 torrent
Parmanu – The.Story.Of.Pokhran.(2018).1-3.Desi.Pre.Rip.V2.x264.AC3 - DTOne.Exclusive torrent
Red Sonja - Brigitte Nielsen 1985 Eng Fre Ger Ita Spa Multi-Subs 1080p [H264-mp4] torrent
Outrage Coda (2017) Takeshi Kitano.720p.H264.italian.jpn.Ac3-5.1.sub.ita.MIRCrew torrent

Social

Loading...

Download Torrent "The Simpsons (1989) - S29E20 (1080p WEB-DL x265 HEVC 10bit AAC 5.1 ImE) [Qx..."

IMDB Details
Description:

The satiric adventures of a working-class family in the misfit city of Springfield.

Genre:

Animation, Comedy

Download Torrent (Magnet)
Download Torrent (File)
Seeds: 22
Leechers: 7
Completed: 727 
Last Checked: 16-05-2018 10:28:19


Loading...
Details
Title:The Simpsons (1989) - S29E20 (1080p WEB-DL x265 HEVC 10bit AAC 5.1 ImE) [Qx...
Description:


Encode Screenshots (Click for full quality)







Media Information
General
Format                                   : Matroska
Format version                           : Version 4 / Version 2
File size                                : 200 MiB
Duration                                 : 21 min 38 s
Overall bit rate                         : 1 294 kb/s
Encoded date                             : UTC 2018-05-15 17:20:47
Writing application                      : mkvmerge v9.6.0 ('Slave To Your Mind') 64bit
Writing library                          : libebml v1.3.4 + libmatroska v1.4.5
Writing frontend                         : StaxRip v1.7.0.0

Video
ID                                       : 1
Format                                   : HEVC
Format/Info                              : High Efficiency Video Coding
Format profile                           : Main [email protected]@Main
Codec ID                                 : V_MPEGH/ISO/HEVC
Duration                                 : 21 min 38 s
Bit rate                                 : 972 kb/s
Width                                    : 1 920 pixels
Height                                   : 1 080 pixels
Display aspect ratio                     : 16:9
Frame rate mode                          : Constant
Frame rate                               : 23.976 (24000/1001) FPS
Color space                              : YUV
Chroma subsampling                       : 4:2:0
Bit depth                                : 10 bits
Bits/(Pixel*Frame)                       : 0.020
Stream size                              : 150 MiB (75%)
Title                                    : Encoded by: ImEverlasting
Writing library                          : x265 2.7+25-e1ed4d609b52:[Windows][MSVC 1914][64 bit] 10bit
Encoding settings                        : cpuid=1173503 / frame-threads=2 / numa-pools=4 / wpp / no-pmode / no-pme / no-psnr / no-ssim / log-level=2 / input-csp=1 / input-res=1920x1080 / interlace=0 / total-frames=31138 / level-idc=0 / high-tier=1 / uhd-bd=0 / ref=4 / no-allow-non-conformance / no-repeat-headers / annexb / no-aud / no-hrd / info / hash=0 / no-temporal-layers / open-gop / min-keyint=23 / keyint=250 / gop-lookahead=0 / bframes=8 / b-adapt=2 / b-pyramid / bframe-bias=0 / rc-lookahead=50 / lookahead-slices=4 / scenecut=40 / radl=0 / no-intra-refresh / ctu=64 / min-cu-size=8 / rect / no-amp / max-tu-size=32 / tu-inter-depth=1 / tu-intra-depth=1 / limit-tu=0 / rdoq-level=2 / dynamic-rd=0.00 / no-ssim-rd / signhide / no-tskip / nr-intra=0 / nr-inter=0 / no-constrained-intra / strong-intra-smoothing / max-merge=3 / limit-refs=3 / limit-modes / me=3 / subme=5 / merange=57 / temporal-mvp / weightp / no-weightb / no-analyze-src-pics / deblock=0:0 / sao / no-sao-non-deblock / rd=4 / no-early-skip / rskip / no-fast-intra / no-tskip-fast / no-cu-lossless / no-b-intra / no-splitrd-skip / rdpenalty=0 / psy-rd=2.00 / psy-rdoq=1.00 / no-rd-refine / no-lossless / cbqpoffs=0 / crqpoffs=0 / rc=abr / bitrate=1000 / qcomp=0.60 / qpstep=4 / stats-write=1 / stats-read=0 / slow-firstpass / ipratio=1.40 / pbratio=1.30 / aq-mode=1 / aq-strength=1.00 / cutree / zone-count=0 / no-strict-cbr / qg-size=32 / no-rc-grain / qpmax=69 / qpmin=0 / no-const-vbv / sar=0 / overscan=0 / videoformat=5 / range=0 / colorprim=2 / transfer=2 / colormatrix=2 / chromaloc=0 / display-window=0 / max-cll=0,0 / min-luma=0 / max-luma=1023 / log2-max-poc-lsb=8 / vui-timing-info / vui-hrd-info / slices=1 / no-opt-qp-pps / no-opt-ref-list-length-pps / no-multi-pass-opt-rps / scenecut-bias=0.05 / no-opt-cu-delta-qp / no-aq-motion / no-hdr / no-hdr-opt / no-dhdr10-opt / no-idr-recovery-sei / analysis-reuse-level=5 / scale-factor=0 / refine-intra=0 / refine-inter=0 / refine-mv=0 / no-limit-sao / ctu-info=0 / no-lowpass-dct / refine-mv-type=0 / copy-pic=1 / max-ausize-factor=1.0 / no-dynamic-refine / no-single-sei
Default                                  : Yes
Forced                                   : No

Audio
ID                                       : 2
Format                                   : AAC
Format/Info                              : Advanced Audio Codec
Format profile                           : LC
Codec ID                                 : A_AAC
Duration                                 : 21 min 38 s
Bit rate                                 : 320 kb/s
Channel(s)                               : 6 channels
Channel positions                        : Front: L C R, Side: L R, LFE
Sampling rate                            : 48.0 kHz
Frame rate                               : 46.875 FPS (1024 spf)
Compression mode                         : Lossy
Delay relative to video                  : 20 ms
Stream size                              : 49.5 MiB (25%)
Language                                 : English
Default                                  : No
Forced                                   : No

Subtitle
ID                                       : 3
Format                                   : UTF-8
Codec ID                                 : S_TEXT/UTF8
Codec ID/Info                            : UTF-8 Plain Text
Duration                                 : 21 min 32 s
Bit rate                                 : 92 b/s
Count of elements                        : 428
Stream size                              : 14.6 KiB (0%)
Language                                 : English
Default                                  : No
Forced                                   : No

Source Information
Release : The.Simpsons.S29E20.Throw.Grampa.from.the.Dane.1080p.WEB-DL.h264.8bit.EAC3.5.1-SiGMA.mkv (577.42 MBs)



Note from QxR:
Whilst we are happy for our releases to be re-posted on a platform we aren't on, please do so in an 'as-is' format. We ask that you do not create a new torrent, include all descriptions you see above including the QxR logo, tags, notes and screenshots. If you'd like to become a permanent poster on a website we don't post to, feel free to get in contact with a QxR member.
Category:TV > HEVC/x265
Lang:English  English
Total Size:210 MB
Info Hash:ca812fe30f891d23c873a09270c5a6f96cc760e3
Added By:QxR
Date Added:16-05-2018 10:28:16

Files

File List: 
 File Size
The Simpsons (1989) - S29E20 - Throw Grampa from the Dane (1080p WEB-DL x265 ImE).mkv210 MB



Loading...
Comments

There are currently no comments. Be the first one to write something !

Disclaimer: None of the files shown here are actually hosted or transmitted by this server. The links are provided solely by this site's users. The site moderation is also a service provided by the site's users. The administrator of this site (ettv.tv) cannot be held responsible for what its users post, or any other actions of its users. You may not use this site to distribute or download any material when you do not have the legal rights to do so. It is your own responsibility to adhere to these terms.