westworld S02E05 westworld Hindi handmaid 13 reasons why S02 Seal Team girlsdoporn 473 13 Reasons Why dtone ready player one krypton ethd Jackass supergirl The Walking Dead star trek discovery español suits silicon valley red sparrow modern family Big bang theory big bang theory español deadpool 2 2018 the originals Greys Anatomy legion etrg the secret life of pets fear the walking dead brooklyn nine nine the americans the 100 Deadpool ddr ettv Gotham blindspot etmovies fgt The Expanse S03E07 FAMILY GUY quantico death wish 2018 young sheldon siren Supernatural Lucifer the originals s05e06 humans Colony survivor into the badlands Deep State Deadpool 2 Avengers infinity war 2018 Lost in Space 2018 s01e07 American Crime Story Ncis homeland THE EXPANSE Black Panther arrow español evo legion s02e08 expanse the handmaids tale Flash arrow the flash Billions 
Warning! Use a VPN When Downloading Torrents!
Your IP Address is 185.223.161.31. Location is
Your Internet Provider is tracking your torrent activity! Hide your IP ADDRESS with a VPN!
We strongly recommend using Trust.Zone VPN to anonymize your torrenting. It's FREE!
Get VPN Now for FREE!
ETTV Recommended TV Shows
Colony.S03E04.HDTV.x264-SVA[ettv] torrent
Humans.S03E02.HDTV.x264-MTB[ettv] torrent
Quantico.S03E04.HDTV.x264-KILLERS[ettv] torrent
Siren.2018.S01E10.WEB.x264-TBS[ettv] torrent

ETTV Recommended Xvid
eHero.2018.HDRip.XViD-ETRG torrent
A.Wrinkle.in.Time.2018.DVDRip.XviD.AC3-EVO torrent
Darkness.Wakes.2018.HDRip.XviD.AC3-EVO torrent
In Darkness 2018.HDRip.XViD-ETRG torrent

ETTV Recommended HD
In Darkness 2018 1080p WEB-DL DD5 1 H264-CMRG[EtHD] torrent
Future.World.2018.1080p.WEB-DL.H264.AC3-EVO[EtHD] torrent
Jurassic Park 1993 UHD 2160p Blu-ray x265 HDR DTS-X 7.1-DTOne torrent
Jurassic.World.2015.UHD.2160p.Blu-ray.x265.HDR..DTS-X.7.1(En+Hin)-DTOne torrent

ETTV Recommended Cam
Avengers Infinity War 2018 NEW HD-TS.XViD.AC3-ETRG torrent
Breaking in 2018 HDCAM ENG X264-THAN0S torrent
Kings 2018 HDCAM ENG X264-THAN0S torrent
Solo.A Star Wars Story.2018.HDCAM.XViD.AC3-ETRG torrent

ETTV Recommended Foreign
Kaalakaandi (2018) 1080P UntoucheD WEB HD - AVC - AAC - DTOne Exclusive.mp4 torrent
Parmanu – The.Story.Of.Pokhran.(2018).1-3.Desi.Pre.Rip.V2.x264.AC3 - DTOne.Exclusive torrent
Red Sonja - Brigitte Nielsen 1985 Eng Fre Ger Ita Spa Multi-Subs 1080p [H264-mp4] torrent
Outrage Coda (2017) Takeshi Kitano.720p.H264.italian.jpn.Ac3-5.1.sub.ita.MIRCrew torrent

Social

Loading...

Download Torrent "The Looney Tunes Show (2011) Season 1 S01 (1080p WEB-DL x265 HEVC 10bit AAC..."

IMDB Details
Description:

An updated iteration of the classic Looney Tunes characters focusing on their satirical misadventures living in suburbia.

Genre:

Animation, Comedy, Family

Download Torrent (Magnet)
Download Torrent (File)
Seeds: 18
Leechers: 14
Completed: 370 
Last Checked: 14-05-2018 08:06:42


Loading...
Details
Title:The Looney Tunes Show (2011) Season 1 S01 (1080p WEB-DL x265 HEVC 10bit AAC...
Description:


Encode Screenshots (Click for full quality)









Media Information
General
Format                                   : Matroska
Format version                           : Version 4 / Version 2
File size                                : 245 MiB
Duration                                 : 22 min 38 s
Overall bit rate                         : 1 516 kb/s
Encoded date                             : UTC 2018-04-26 16:49:21
Writing application                      : mkvmerge v12.0.0 ('Trust / Lust') 64bit
Writing library                          : libebml v1.3.4 + libmatroska v1.4.5
Cover                                    : Yes
Attachments                              : cover.jpg

Video
ID                                       : 1
Format                                   : HEVC
Format/Info                              : High Efficiency Video Coding
Format profile                           : Main [email protected]@Main
Codec ID                                 : V_MPEGH/ISO/HEVC
Duration                                 : 22 min 38 s
Bit rate                                 : 1 359 kb/s
Width                                    : 1 920 pixels
Height                                   : 1 080 pixels
Display aspect ratio                     : 16:9
Frame rate mode                          : Constant
Frame rate                               : 23.976 (24000/1001) FPS
Color space                              : YUV
Chroma subsampling                       : 4:2:0
Bit depth                                : 10 bits
Bits/(Pixel*Frame)                       : 0.027
Stream size                              : 220 MiB (90%)
Writing library                          : x265 2.7+342-930e3cc385df:[Windows][MSVC 1900][64 bit] 10bit
Encoding settings                        : cpuid=1111039 / frame-threads=3 / numa-pools=8 / wpp / no-pmode / no-pme / no-psnr / no-ssim / log-level=2 / input-csp=1 / input-res=1920x1080 / interlace=0 / total-frames=32574 / level-idc=0 / high-tier=1 / uhd-bd=0 / ref=4 / no-allow-non-conformance / no-repeat-headers / annexb / no-aud / no-hrd / info / hash=0 / no-temporal-layers / open-gop / min-keyint=23 / keyint=250 / gop-lookahead=0 / bframes=4 / b-adapt=2 / b-pyramid / bframe-bias=0 / rc-lookahead=80 / lookahead-slices=4 / scenecut=40 / radl=0 / no-intra-refresh / ctu=64 / min-cu-size=8 / rect / no-amp / max-tu-size=32 / tu-inter-depth=1 / tu-intra-depth=1 / limit-tu=0 / rdoq-level=2 / dynamic-rd=0.00 / no-ssim-rd / signhide / no-tskip / nr-intra=0 / nr-inter=0 / no-constrained-intra / no-strong-intra-smoothing / max-merge=3 / limit-refs=3 / limit-modes / me=3 / subme=5 / merange=57 / temporal-mvp / weightp / no-weightb / no-analyze-src-pics / deblock=-1:-1 / no-sao / no-sao-non-deblock / rd=4 / no-early-skip / rskip / no-fast-intra / no-tskip-fast / no-cu-lossless / no-b-intra / no-splitrd-skip / rdpenalty=0 / psy-rd=1.00 / psy-rdoq=1.40 / no-rd-refine / no-lossless / cbqpoffs=0 / crqpoffs=0 / rc=abr / bitrate=1360 / qcomp=0.60 / qpstep=4 / stats-write=0 / stats-read=2 / cplxblur=20.0 / qblur=0.5 / ipratio=1.40 / pbratio=1.30 / aq-mode=3 / aq-strength=0.65 / cutree / zone-count=0 / no-strict-cbr / qg-size=32 / no-rc-grain / qpmax=69 / qpmin=0 / no-const-vbv / sar=0 / overscan=0 / videoformat=5 / range=0 / colorprim=2 / transfer=2 / colormatrix=2 / chromaloc=0 / display-window=0 / max-cll=0,0 / min-luma=0 / max-luma=1023 / log2-max-poc-lsb=8 / vui-timing-info / vui-hrd-info / slices=1 / no-opt-qp-pps / no-opt-ref-list-length-pps / no-multi-pass-opt-rps / scenecut-bias=0.05 / no-opt-cu-delta-qp / no-aq-motion / no-hdr / no-hdr-opt / no-dhdr10-opt / no-idr-recovery-sei / analysis-reuse-level=5 / scale-factor=0 / refine-intra=0 / refine-inter=0 / refine-mv=0 / no-limit-sao / ctu-info=0 / no-lowpass-dct / refine-mv-type=0 / copy-pic=1 / max-ausize-factor=1.0 / no-dynamic-refine / no-single-sei
Default                                  : Yes
Forced                                   : No

Audio
ID                                       : 2
Format                                   : AAC
Format/Info                              : Advanced Audio Codec
Format profile                           : LC
Codec ID                                 : A_AAC
Duration                                 : 22 min 38 s
Bit rate                                 : 153 kb/s
Channel(s)                               : 2 channels
Channel positions                        : Front: L R
Sampling rate                            : 48.0 kHz
Frame rate                               : 46.875 FPS (1024 spf)
Compression mode                         : Lossy
Stream size                              : 24.8 MiB (10%)
Language                                 : English
Default                                  : No
Forced                                   : No

Subtitle
ID                                       : 3
Format                                   : UTF-8
Codec ID                                 : S_TEXT/UTF8
Codec ID/Info                            : UTF-8 Plain Text
Duration                                 : 22 min 34 s
Bit rate                                 : 94 b/s
Count of elements                        : 493
Stream size                              : 15.6 KiB (0%)
Language                                 : English
Default                                  : No
Forced                                   : No

Source Information
Release : The.Looney.Tunes.Show.S01.1080p.WEB-DL.AAC2.0.H.264-BTN (Thanks!)



Note from QxR:
Whilst we are happy for our releases to be re-posted on a platform we aren't on, please do so in an 'as-is' format. We ask that you do not create a new torrent, include all descriptions you see above including the QxR logo, tags, notes and screenshots. If you'd like to become a permanent poster on a website we don't post to, feel free to get in contact with a QxR member.
Category:TV > HEVC/x265
Lang:English  English
Total Size:6.56 GB
Info Hash:28432b7c387e38a1a0ad0c1e9a6143127b8deac8
Added By:QxR
Date Added:14-05-2018 08:06:35

Files

File List: 
 File Size
The Looney Tunes Show (2011) - S01E01 - Best Friends (1080p WEB-DL x265 RCVR).mkv257 MB
The Looney Tunes Show (2011) - S01E02 - Members Only (1080p WEB-DL x265 RCVR).mkv256 MB
The Looney Tunes Show (2011) - S01E03 - Jailbird and Jailbunny (1080p WEB-DL x265 RCVR).mkv244 MB
The Looney Tunes Show (2011) - S01E04 - Fish and Visitors (1080p WEB-DL x265 RCVR).mkv246 MB
The Looney Tunes Show (2011) - S01E05 - Monster Talent (1080p WEB-DL x265 RCVR).mkv258 MB
The Looney Tunes Show (2011) - S01E06 - Reunion (1080p WEB-DL x265 RCVR).mkv258 MB
The Looney Tunes Show (2011) - S01E07 - Casa de Calma (1080p WEB-DL x265 RCVR).mkv249 MB
The Looney Tunes Show (2011) - S01E08 - Devil Dog (1080p WEB-DL x265 RCVR).mkv247 MB
The Looney Tunes Show (2011) - S01E09 - The Foghorn Leghorn Story (1080p WEB-DL x265 RCVR).mkv254 MB
The Looney Tunes Show (2011) - S01E10 - Eligible Bachelors (1080p WEB-DL x265 RCVR).mkv259 MB
The Looney Tunes Show (2011) - S01E11 - Peel of Fortune (1080p WEB-DL x265 RCVR).mkv247 MB
The Looney Tunes Show (2011) - S01E12 - Double Date (1080p WEB-DL x265 RCVR).mkv257 MB
The Looney Tunes Show (2011) - S01E13 - To Bowl or Not to Bowl (1080p WEB-DL x265 RCVR).mkv257 MB
The Looney Tunes Show (2011) - S01E14 - Newspaper Thief (1080p WEB-DL x265 RCVR).mkv255 MB
The Looney Tunes Show (2011) - S01E15 - Bugs & Daffy Get a Job (1080p WEB-DL x265 RCVR).mkv248 MB
The Looney Tunes Show (2011) - S01E16 - That's My Baby (1080p WEB-DL x265 RCVR).mkv247 MB
The Looney Tunes Show (2011) - S01E17 - Sunday Night Slice (1080p WEB-DL x265 RCVR).mkv259 MB
The Looney Tunes Show (2011) - S01E18 - The DMV (1080p WEB-DL x265 RCVR).mkv243 MB
The Looney Tunes Show (2011) - S01E19 - Off Duty Cop (1080p WEB-DL x265 RCVR).mkv242 MB
The Looney Tunes Show (2011) - S01E20 - Working Duck (1080p WEB-DL x265 RCVR).mkv256 MB
The Looney Tunes Show (2011) - S01E21 - French Fries (1080p WEB-DL x265 RCVR).mkv252 MB
The Looney Tunes Show (2011) - S01E22 - Beauty School (1080p WEB-DL x265 RCVR).mkv257 MB
The Looney Tunes Show (2011) - S01E23 - The Float (1080p WEB-DL x265 RCVR).mkv248 MB
The Looney Tunes Show (2011) - S01E24 - The Shelf (1080p WEB-DL x265 RCVR).mkv258 MB
The Looney Tunes Show (2011) - S01E25 - The Muh-Muh-Muh-Murder (1080p WEB-DL x265 RCVR).mkv252 MB
The Looney Tunes Show (2011) - S01E26 - Point, Laser Point (1080p WEB-DL x265 RCVR).mkv258 MB



Loading...
Comments

There are currently no comments. Be the first one to write something !

Disclaimer: None of the files shown here are actually hosted or transmitted by this server. The links are provided solely by this site's users. The site moderation is also a service provided by the site's users. The administrator of this site (ettv.tv) cannot be held responsible for what its users post, or any other actions of its users. You may not use this site to distribute or download any material when you do not have the legal rights to do so. It is your own responsibility to adhere to these terms.