westworld S02E05 westworld Hindi handmaid 13 reasons why S02 Seal Team girlsdoporn 473 13 Reasons Why dtone ready player one krypton ethd Jackass supergirl The Walking Dead star trek discovery español suits silicon valley red sparrow modern family Big bang theory big bang theory español deadpool 2 2018 the originals Greys Anatomy legion etrg the secret life of pets fear the walking dead brooklyn nine nine the americans the 100 Deadpool ddr ettv Gotham blindspot etmovies fgt The Expanse S03E07 FAMILY GUY quantico death wish 2018 young sheldon siren Supernatural Lucifer the originals s05e06 humans Colony survivor into the badlands Deep State Deadpool 2 Avengers infinity war 2018 Lost in Space 2018 s01e07 American Crime Story Ncis homeland THE EXPANSE Black Panther arrow español evo legion s02e08 expanse the handmaids tale Flash arrow the flash Billions 
Warning! Use a VPN When Downloading Torrents!
Your IP Address is 185.223.161.69. Location is
Your Internet Provider is tracking your torrent activity! Hide your IP ADDRESS with a VPN!
We strongly recommend using Trust.Zone VPN to anonymize your torrenting. It's FREE!
Get VPN Now for FREE!
ETTV Recommended TV Shows
Colony.S03E04.HDTV.x264-SVA[ettv] torrent
Humans.S03E02.HDTV.x264-MTB[ettv] torrent
Quantico.S03E04.HDTV.x264-KILLERS[ettv] torrent
Siren.2018.S01E10.WEB.x264-TBS[ettv] torrent

ETTV Recommended Xvid
eHero.2018.HDRip.XViD-ETRG torrent
A.Wrinkle.in.Time.2018.DVDRip.XviD.AC3-EVO torrent
Darkness.Wakes.2018.HDRip.XviD.AC3-EVO torrent
In Darkness 2018.HDRip.XViD-ETRG torrent

ETTV Recommended HD
In Darkness 2018 1080p WEB-DL DD5 1 H264-CMRG[EtHD] torrent
Future.World.2018.1080p.WEB-DL.H264.AC3-EVO[EtHD] torrent
Jurassic Park 1993 UHD 2160p Blu-ray x265 HDR DTS-X 7.1-DTOne torrent
Jurassic.World.2015.UHD.2160p.Blu-ray.x265.HDR..DTS-X.7.1(En+Hin)-DTOne torrent

ETTV Recommended Cam
Avengers Infinity War 2018 NEW HD-TS.XViD.AC3-ETRG torrent
Breaking in 2018 HDCAM ENG X264-THAN0S torrent
Kings 2018 HDCAM ENG X264-THAN0S torrent
Solo.A Star Wars Story.2018.HDCAM.XViD.AC3-ETRG torrent

ETTV Recommended Foreign
Kaalakaandi (2018) 1080P UntoucheD WEB HD - AVC - AAC - DTOne Exclusive.mp4 torrent
Parmanu – The.Story.Of.Pokhran.(2018).1-3.Desi.Pre.Rip.V2.x264.AC3 - DTOne.Exclusive torrent
Red Sonja - Brigitte Nielsen 1985 Eng Fre Ger Ita Spa Multi-Subs 1080p [H264-mp4] torrent
Outrage Coda (2017) Takeshi Kitano.720p.H264.italian.jpn.Ac3-5.1.sub.ita.MIRCrew torrent

Social

Loading...

Download Torrent "Marvel's Agents of S.H.I.E.L.D S05E21 AMZN WEBRip 1080p x265 DD5.1 D0ct0rLe..."

IMDB Details
Description:

N/A

Genre:

N/A

Download Torrent (Magnet)
Download Torrent (File)
Seeds: 63
Leechers: 9
Completed: 158 
Last Checked: 13-05-2018 18:18:21


Details
Title:Marvel's Agents of S.H.I.E.L.D S05E21 AMZN WEBRip 1080p x265 DD5.1 D0ct0rLe...
Description:





Media Information

Unique ID                                : 228037918656786512987598704215847745317 (0xAB8E816EFB1E2A6B8EDDBF11DFAE3725)
Complete name                            : Marvel's Agents of S.H.I.E.L.D S05E21 AMZN WEBRip 1080p x265 DD5.1 D0ct0rLew[UTR].mkv
Format                                   : Matroska
Format version                           : Version 4 / Version 2
File size                                : 1.68 GiB
Duration                                 : 43 min 2 s
Overall bit rate                         : 5 600 kb/s
Encoded date                             : UTC 2018-05-13 04:11:29
Writing application                      : mkvmerge v15.0.0 ('Duel with the Devil') 64-bit
Writing library                          : libebml v1.3.5 + libmatroska v1.4.5

Video
ID                                       : 3
Format                                   : HEVC
Format/Info                              : High Efficiency Video Coding
Format profile                           : Main [email protected]@Main
Codec ID                                 : V_MPEGH/ISO/HEVC
Duration                                 : 43 min 2 s
Bit rate                                 : 5 214 kb/s
Width                                    : 1 920 pixels
Height                                   : 1 080 pixels
Display aspect ratio                     : 16:9
Frame rate mode                          : Constant
Frame rate                               : 23.976 (24000/1001) FPS
Color space                              : YUV
Chroma subsampling                       : 4:2:0
Bit depth                                : 10 bits
Bits/(Pixel*Frame)                       : 0.105
Stream size                              : 1.57 GiB (93%)
Writing library                          : x265 2.7+348-0968a46d6ba4:[Windows][MSVC 1914][64 bit] 10bit
Encoding settings                        : cpuid=1049583 / frame-threads=3 / numa-pools=8 / wpp / no-pmode / no-pme / no-psnr / no-ssim / log-level=2 / input-csp=1 / input-res=1920x1080 / interlace=0 / total-frames=61915 / level-idc=0 / high-tier=1 / uhd-bd=0 / ref=4 / no-allow-non-conformance / no-repeat-headers / annexb / no-aud / no-hrd / info / hash=0 / no-temporal-layers / open-gop / min-keyint=23 / keyint=250 / gop-lookahead=0 / bframes=8 / b-adapt=2 / b-pyramid / bframe-bias=0 / rc-lookahead=90 / lookahead-slices=4 / scenecut=40 / radl=0 / no-intra-refresh / ctu=64 / min-cu-size=8 / rect / no-amp / max-tu-size=32 / tu-inter-depth=1 / tu-intra-depth=1 / limit-tu=0 / rdoq-level=2 / dynamic-rd=0.00 / no-ssim-rd / signhide / no-tskip / nr-intra=0 / nr-inter=0 / no-constrained-intra / no-strong-intra-smoothing / max-merge=3 / limit-refs=3 / limit-modes / me=3 / subme=3 / merange=92 / temporal-mvp / weightp / no-weightb / no-analyze-src-pics / deblock=3:3 / no-sao / no-sao-non-deblock / rd=4 / no-early-skip / rskip / no-fast-intra / no-tskip-fast / no-cu-lossless / no-b-intra / no-splitrd-skip / rdpenalty=0 / psy-rd=1.30 / psy-rdoq=1.00 / no-rd-refine / no-lossless / cbqpoffs=0 / crqpoffs=0 / rc=crf / crf=19.5 / qcomp=0.60 / qpstep=4 / stats-write=0 / stats-read=0 / ipratio=1.40 / pbratio=1.30 / aq-mode=3 / aq-strength=1.00 / cutree / zone-count=0 / no-strict-cbr / qg-size=32 / no-rc-grain / qpmax=69 / qpmin=0 / no-const-vbv / sar=0 / overscan=0 / videoformat=5 / range=0 / colorprim=2 / transfer=2 / colormatrix=2 / chromaloc=0 / display-window=0 / max-cll=0,0 / min-luma=0 / max-luma=1023 / log2-max-poc-lsb=8 / vui-timing-info / vui-hrd-info / slices=1 / no-opt-qp-pps / no-opt-ref-list-length-pps / no-multi-pass-opt-rps / scenecut-bias=0.05 / no-opt-cu-delta-qp / no-aq-motion / no-hdr / no-hdr-opt / no-dhdr10-opt / no-idr-recovery-sei / analysis-reuse-level=5 / scale-factor=0 / refine-intra=0 / refine-inter=0 / refine-mv=0 / no-limit-sao / ctu-info=0 / no-lowpass-dct / refine-mv-type=0 / copy-pic=1 / max-ausize-factor=1.0 / no-dynamic-refine / no-single-sei
Default                                  : Yes
Forced                                   : No

Audio
ID                                       : 2
Format                                   : AC-3
Format/Info                              : Audio Coding 3
Codec ID                                 : A_AC3
Duration                                 : 43 min 2 s
Bit rate mode                            : Constant
Bit rate                                 : 384 kb/s
Channel(s)                               : 6 channels
Channel positions                        : Front: L C R, Side: L R, LFE
Sampling rate                            : 48.0 kHz
Frame rate                               : 31.250 FPS (1536 SPF)
Bit depth                                : 16 bits
Compression mode                         : Lossy
Stream size                              : 118 MiB (7%)
Language                                 : English
Service kind                             : Complete Main
Default                                  : Yes
Forced                                   : No

Text
ID                                       : 1
Format                                   : UTF-8
Codec ID                                 : S_TEXT/UTF8
Codec ID/Info                            : UTF-8 Plain Text
Duration                                 : 42 min 53 s
Bit rate                                 : 80 b/s
Count of elements                        : 876
Stream size                              : 25.3 KiB (0%)
Language                                 : English
Default                                  : Yes
Forced                                   : No

We have no issue with individuals posting or re-uploading our torrents on a platform we aren't on. However, if this is something you'd like to do, please do so in a 'as-is' format. We ask that you do not create a new torrent, include all descriptions you see above including the UTR logo, tags, notes and screenshots. If you'd like to become a permanent poster on a website we don't post to, feel free to get in contact with a UniTeam member.



Category:TV > HEVC/x265
Lang:English  English
Total Size:1.81 GB
Info Hash:0ac9e66af4ae431dcb881146c72de24e1b1a4bf8
Added By:UTR
Date Added:13-05-2018 18:18:12

Files

File List: 
 File Size
Marvel's Agents of S.H.I.E.L.D S05E21 AMZN WEBRip 1080p x265 DD5.1 D0ct0rLew[UTR].mkv1.81 GB



Loading...
Comments

There are currently no comments. Be the first one to write something !

Disclaimer: None of the files shown here are actually hosted or transmitted by this server. The links are provided solely by this site's users. The site moderation is also a service provided by the site's users. The administrator of this site (ettv.tv) cannot be held responsible for what its users post, or any other actions of its users. You may not use this site to distribute or download any material when you do not have the legal rights to do so. It is your own responsibility to adhere to these terms.