big bang theory the 100 the expanse s03e07 SEAL Team survivor s36e14 ARROW evo legion s02e08 lucifer into the badlands Young Sheldon survivor survivor s36 Ready player one american crime story the flash avengers infinity war 2018 deadpool etmovies designated survivor Supernatural the originals s05e06 Supergirl youtube bots Lost in Space 2018 s01e07 the handmaids tale ddr Deadpool 2 death wish 2018 expanse handmaid 13 reasons why deadpool 2 2018 Red Sparrow krypton s01e10 flash arrow español The expanse FAMILY GUY ettv etrg Black Panther brooklyn nine nine Gotham krypton death wish star trek discovery español the crossing Hindi ethd empire archer Dtone westworld S02E05 colony fear the walking dead The flash s04e23 legion the americans silicon valley fgt the walking dead elementary Billions the 100 s05e05 ncis big bang theory español THE ORIGINALS Humans S03E02 13 Reasons Why S02 dtone Westworld Modern Family 
Warning! Use a VPN When Downloading Torrents!
Your IP Address is 95.181.177.94. Location is Poland
Your Internet Provider is tracking your torrent activity! Hide your IP ADDRESS with a VPN!
We strongly recommend using Trust.Zone VPN to anonymize your torrenting. It's FREE!
Get VPN Now for FREE!
ETTV Recommended TV Shows
Colony.S03E04.HDTV.x264-SVA[ettv] torrent
Humans.S03E02.HDTV.x264-MTB[ettv] torrent
Quantico.S03E04.HDTV.x264-KILLERS[ettv] torrent
Siren.2018.S01E10.WEB.x264-TBS[ettv] torrent

ETTV Recommended Xvid
The Strangers Prey at Night 2018 HDRip.XViD-ETRG torrent
eHero.2018.HDRip.XViD-ETRG torrent
A.Wrinkle.in.Time.2018.DVDRip.XviD.AC3-EVO torrent
Darkness.Wakes.2018.HDRip.XviD.AC3-EVO torrent

ETTV Recommended HD
The Matrix 1999 UHD Blu-ray 2160p HDR Remux Multi Atmos 7.1-DTOne torrent
Fury.of.the.Fist.and.the.Golden.Fleece.2018.720p.AMZN.WEB-DL.DDP2.0.H.264-NTG[EtHD] torrent
In Darkness 2018 1080p WEB-DL DD5 1 H264-CMRG[EtHD] torrent
Future.World.2018.1080p.WEB-DL.H264.AC3-EVO[EtHD] torrent

ETTV Recommended Cam
Avengers Infinity War 2018 NEW HD-TS.XViD.AC3-ETRG torrent
Breaking in 2018 HDCAM ENG X264-THAN0S torrent
Kings 2018 HDCAM ENG X264-THAN0S torrent
Solo.A Star Wars Story.2018.PROPER.720p.HDCAM.ENG.1XBET torrent

ETTV Recommended Foreign
A.Fantastic.Woman.2017.BluRay.1080p.x264.DTS-HD.MA5.1-DTOne torrent
The Monkey King 3 Kingdom of Women 2018 Blu-ray 1080p x264 Atmos 7.1 -DTOne torrent
Get The Gringo (2012) x264 720p UNCUT BluRay Eng Subs {Dual Audio} [Hindi ORG DD 2.0 + English 2.0] Exclusive By DREDD torrent
Kaalakaandi (2018) 1080P UntoucheD WEB HD - AVC - AAC - DTOne Exclusive.mp4 torrent

Social

Loading...

Download Torrent "DuckTales (2017) S01E11 (1080p AMZN WEB-DL x265 HEVC 10bit AC3 2.0 Qman) [U..."

IMDB Details
Description:

The comedy-adventure series chronicles the high-flying adventures of trillionaire Scrooge McDuck, his grandnephews - Huey, Dewey and Louie, temperamental nephew Donald Duck, Launchpad McQuack, Mrs. Beakley and her granddaughter Webby.

Genre:

Animation, Adventure, Comedy

Download Torrent (Magnet)
Download Torrent (File)
Seeds: 12
Leechers: 4
Completed: 319 
Last Checked: 16-05-2018 17:24:45


Loading...
Details
Title:DuckTales (2017) S01E11 (1080p AMZN WEB-DL x265 HEVC 10bit AC3 2.0 Qman) [U...
Description:





Media Information
General
Format                                   : Matroska
Format version                           : Version 4 / Version 2
File size                                : 459 MiB
Duration                                 : 22 min 36 s
Overall bit rate                         : 2 838 kb/s
Encoded date                             : UTC 2018-05-15 15:31:27
Writing application                      : mkvmerge v23.0.0 ('The Bride Said No') 64-bit
Writing library                          : libebml v1.3.6 + libmatroska v1.4.9

Video
ID                                       : 1
Format                                   : HEVC
Format/Info                              : High Efficiency Video Coding
Format profile                           : Main [email protected]@Main
Codec ID                                 : V_MPEGH/ISO/HEVC
Duration                                 : 22 min 36 s
Bit rate                                 : 2 612 kb/s
Width                                    : 1 920 pixels
Height                                   : 1 080 pixels
Display aspect ratio                     : 16:9
Frame rate mode                          : Constant
Frame rate                               : 23.976 (24000/1001) FPS
Color space                              : YUV
Chroma subsampling                       : 4:2:0
Bit depth                                : 10 bits
Bits/(Pixel*Frame)                       : 0.053
Stream size                              : 422 MiB (92%)
Writing library                          : x265 2.7+344-091f07265371:[Windows][MSVC 1914][64 bit] 10bit
Encoding settings                        : cpuid=1111039 / frame-threads=2 / numa-pools=4 / wpp / no-pmode / no-pme / no-psnr / no-ssim / log-level=2 / input-csp=1 / input-res=1920x1080 / interlace=0 / total-frames=32532 / level-idc=0 / high-tier=1 / uhd-bd=0 / ref=3 / no-allow-non-conformance / no-repeat-headers / annexb / no-aud / no-hrd / info / hash=0 / no-temporal-layers / open-gop / min-keyint=23 / keyint=250 / gop-lookahead=0 / bframes=4 / b-adapt=2 / b-pyramid / bframe-bias=0 / rc-lookahead=20 / lookahead-slices=6 / scenecut=40 / radl=0 / no-intra-refresh / ctu=64 / min-cu-size=8 / no-rect / no-amp / max-tu-size=32 / tu-inter-depth=1 / tu-intra-depth=1 / limit-tu=0 / rdoq-level=1 / dynamic-rd=0.00 / no-ssim-rd / signhide / no-tskip / nr-intra=0 / nr-inter=0 / no-constrained-intra / no-strong-intra-smoothing / max-merge=2 / limit-refs=3 / no-limit-modes / me=3 / subme=2 / merange=57 / temporal-mvp / weightp / no-weightb / no-analyze-src-pics / deblock=-1:-1 / sao / no-sao-non-deblock / rd=3 / no-early-skip / rskip / no-fast-intra / no-tskip-fast / no-cu-lossless / no-b-intra / no-splitrd-skip / rdpenalty=0 / psy-rd=0.35 / psy-rdoq=0.00 / no-rd-refine / no-lossless / cbqpoffs=0 / crqpoffs=0 / rc=crf / crf=24.0 / qcomp=0.60 / qpstep=4 / stats-write=0 / stats-read=0 / ipratio=1.40 / pbratio=1.30 / aq-mode=3 / aq-strength=1.00 / cutree / zone-count=0 / no-strict-cbr / qg-size=32 / no-rc-grain / qpmax=69 / qpmin=0 / no-const-vbv / sar=0 / overscan=0 / videoformat=5 / range=0 / colorprim=2 / transfer=2 / colormatrix=2 / chromaloc=0 / display-window=0 / max-cll=0,0 / min-luma=0 / max-luma=1023 / log2-max-poc-lsb=8 / vui-timing-info / vui-hrd-info / slices=1 / no-opt-qp-pps / no-opt-ref-list-length-pps / no-multi-pass-opt-rps / scenecut-bias=0.05 / no-opt-cu-delta-qp / no-aq-motion / no-hdr / no-hdr-opt / no-dhdr10-opt / no-idr-recovery-sei / analysis-reuse-level=5 / scale-factor=0 / refine-intra=0 / refine-inter=0 / refine-mv=0 / no-limit-sao / ctu-info=0 / no-lowpass-dct / refine-mv-type=0 / copy-pic=1 / max-ausize-factor=1.0 / no-dynamic-refine / no-single-sei
Language                                 : English
Default                                  : Yes
Forced                                   : No

Audio
ID                                       : 2
Format                                   : E-AC-3
Format/Info                              : Enhanced Audio Coding 3
Format settings, Endianness              : Big
Codec ID                                 : A_EAC3
Duration                                 : 22 min 36 s
Bit rate mode                            : Constant
Bit rate                                 : 224 kb/s
Channel(s)                               : 2 channels
Channel positions                        : Front: L R
Sampling rate                            : 48.0 kHz
Frame rate                               : 187.500 FPS (256 spf)
Compression mode                         : Lossy
Stream size                              : 36.2 MiB (8%)
Language                                 : English
Default                                  : Yes
Forced                                   : No

Subtitle
ID                                       : 3
Format                                   : UTF-8
Codec ID                                 : S_TEXT/UTF8
Codec ID/Info                            : UTF-8 Plain Text
Duration                                 : 22 min 2 s
Bit rate                                 : 82 b/s
Count of elements                        : 483
Stream size                              : 13.2 KiB (0%)
Language                                 : English
Default                                  : Yes
Forced                                   : No

Source Information
Release: Unknown Source/NO-GROUP


UTR wrote:

Note From UTR
We have no issue with individuals posting or re-uploading our torrents on a platform we aren't on. However, if this is something you'd like to do, please do so in a 'as-is' format. We ask that you do not create a new torrent, include all descriptions you see above including the UTR logo, tags, notes and screenshots. If you'd like to become a permanent poster on a website we don't post to, feel free to get in contact with a UniTeam member.

If possible please donate: BTC 1QA5fum5AyXvWzdVCkQzUNvw3Ef15fHRaR



Category:TV > HEVC/x265
Lang:English  English
Total Size:481 MB
Info Hash:cbb1fbb5c4a89f0234a9c4d4560dc9cfe464a4c0
Added By:UTR
Date Added:16-05-2018 17:24:42

Files

File List: 
 File Size
DuckTales.(2017).S01E11.1080p.AMZN.WEB-DL.x265.10bit.EAC3.2.0-Qman[UTR].mkv481 MB



Loading...
Comments

There are currently no comments. Be the first one to write something !

Disclaimer: None of the files shown here are actually hosted or transmitted by this server. The links are provided solely by this site's users. The site moderation is also a service provided by the site's users. The administrator of this site (ettv.tv) cannot be held responsible for what its users post, or any other actions of its users. You may not use this site to distribute or download any material when you do not have the legal rights to do so. It is your own responsibility to adhere to these terms.