chicago fire incredibles 2 hindi daredevil s03 ita 2018 Star Trek discovery lucifer doctor who etmovies Fear the walking dead NFL 2160p arrow español MODERN FAMILY Venom 0 WWE THE GOOD DOCTOR dtone Titans UFC Elementary 1080p YIFY Game of thrones porn bbc mr robot en español the walking dead daredevil lethal weapon ncis ethd big bang theory español The Flash formula 1 big bang theory ettv fgt Better Call Saul Shameless Vikings 1080p 2018 star trek discovery español evo american horror story DTOne flash etrg it 2017 Z nation 2018 ITA avengers blindspot High Castle s03e07 Greys Anatomy Survivor formula daredevil s03e01 blindspot s04e02 van helsing Arrow office 2019 south park The big bang theory Supernatural ita ddr 
Warning! Use a VPN When Downloading Torrents!
Your IP Address is 185.252.214.148. Location is
Your Internet Provider is tracking your torrent activity! Hide your IP ADDRESS with a VPN!
We strongly recommend using ExpressVPN to anonymize your torrenting. 30 Day Money Back Guarantee!
Try it Now!
ETTV Recommended TV Shows
Ray.Donovan.S06E01.WEBRip.x264-eSc[ettv] torrent
Shameless.US.S09E07.WEB.h264-CONVOY[ettv] torrent
Kidding.S01E07.WEB.h264-CONVOY[ettv] torrent
Ghost.Adventures.S16E12.Commanders.House.iNTERNAL.720p.HDTV.x264-DHD[ettv] torrent

ETTV Recommended Xvid
Malicious.2018.HDRip.XviD.AC3-EVO[EtMovies] torrent
Reach.2018.HDRip.XviD.AC3-EVO[EtMovies] torrent
Forgotten.Evil.2018.HDRip.XviD.AC3-EVO torrent
Bad.Blood.2018.HDRip.XviD.AC3-EVO[EtMovies] torrent

ETTV Recommended HD
Death.Kiss.2018.1080p.WEB-DL.DD+2.0.H.264-SbR[EtHD] torrent
The.Darkest.Minds.2018.1080p.BluRay.x264-GECKOS[EtHD] torrent
Galveston.2018.1080p.WEB-DL.DD5.1.H264-CMRG[EtHD] torrent
Malicious.2018.1080p.WEB-DL.H264.AC3-EVO[EtHD] torrent

ETTV Recommended UHD
Ant-Man.And.The.Wasp.2018.mUHD.2160p.Blu-ray.x265.HDR.DDP.5.1-DTOne torrent
Constantine.City.of.Demons.2018.2160p.BluRay.x265.10bit.HDR.DTS-HD.MA.5.1-SWTYBLZ[EtHD] torrent
Your.Name.2016.2160p.UHD.BluRay.x265-VALiS[EtHD] torrent
Peter.Rabbit.2018.PLDUB.DUAL.2160p.UHD.BluRay.x265-FLAME[EtHD] torrent

ETTV Recommended Cam
Bad Times at the El Royale 2018.HDCAM.XViD.AC3-ETRG torrent
Goosebumps 2 Haunted Halloween 2018 HDTS.x264.AC3-ETRG torrent
Halloween 2018.HDCAM.XViD.AC3-ETRG torrent
Night School 2018 HDTS XViD AC3-ETRG torrent

ETTV Recommended Foreign
Satyameva Jayate (2018) Hindi 1080p WEB-RIP x264 AC3 DD5.1 - ESUB ~ Ranvijay torrent
Badhaai.Ho.(2018).1-3.Desi.Pre.Rip.x264.AAC.2.0-DTOne torrent
Guru (2017) 720p UNCUT HDRip x264 [Dual Audio] [Hindi DD 2.0 - Telugu 2.0] Exclusive By -=!Dr.STAR!=- torrent
The.Night.Comes.For.Us.2018.1080p.NF.WEB-DL.DD5.1.H264-CMRG[EtHD] torrent

Social


Download Torrent "Constantine (2005) 1080p BluRay x264 Dual Audio [Hindi DD2.0 Org - English ..."

IMDB Details
Description:

N/A

Genre:

N/A

Download Torrent (Magnet)
Download Torrent (File)
Seeds: 97
Leechers: 216
Completed: 346 
Last Checked: 11-10-2018 08:21:27


Loading...
Details
Title:Constantine (2005) 1080p BluRay x264 Dual Audio [Hindi DD2.0 Org - English ...
Description:






Join My Facebook Group

Constantine (2005) 1080p BluRay x264 Dual Audio [Hindi DD2.0 Org - English DD5.1] - Esubs ~ Ranvijay


Buy RDP Online



General
Format                                   : Matroska
Format version                           : Version 4 / Version 2
File size                                : 4.62 GiB
Duration                                 : 2 h 0 min
Overall bit rate                         : 5 474 kb/s
Movie name                               : Constantine (2005) 1080p BluRay x264 Dual Audio [Hindi DD2.0 Org - English DD5.1] - Esubs ~ Ranvijay

Video
ID                                       : 1
Format                                   : AVC
Format/Info                              : Advanced Video Codec
Duration                                 : 2 h 0 min
Bit rate                                 : 4 798 kb/s
Width                                    : 1 920 pixels
Height                                   : 792 pixels
Display aspect ratio                     : 2.40:1
Frame rate mode                          : Constant
Frame rate                               : 23.976 FPS
Color space                              : YUV
Chroma subsampling                       : 4:2:0
Bit depth                                : 8 bits
Scan type                                : Progressive
Bits/(Pixel*Frame)                       : 0.132
Stream size                              : 4.05 GiB (88%)
Title                                    : ~Ranvijay~

Audio #1
ID                                       : 2
Format                                   : AC-3
Format/Info                              : Audio Coding 3
Codec ID                                 : A_AC3
Duration                                 : 2 h 0 min
Bit rate mode                            : Constant
Bit rate                                 : 224 kb/s
Channel(s)                               : 2 channels
Channel positions                        : Front: L R
Sampling rate                            : 48.0 kHz
Frame rate                               : 31.250 FPS (1536 SPF)
Bit depth                                : 16 bits
Compression mode                         : Lossy
Stream size                              : 194 MiB (4%)
Title                                    : ~Ranvijay~
Language                                 : Hindi
Service kind                             : Complete Main
Default                                  : Yes
Forced                                   : Yes

Audio #2
ID                                       : 4
Format                                   : AC-3
Format/Info                              : Audio Coding 3
Codec ID                                 : A_AC3
Duration                                 : 2 h 0 min
Bit rate mode                            : Constant
Bit rate                                 : 448 kb/s
Channel(s)                               : 6 channels
Channel positions                        : Front: L C R, Side: L R, LFE
Sampling rate                            : 48.0 kHz
Frame rate                               : 31.250 FPS (1536 SPF)
Bit depth                                : 16 bits
Compression mode                         : Lossy
Stream size                              : 387 MiB (8%)
Title                                    : ~Ranvijay~
Language                                 : English
Service kind                             : Complete Main
Default                                  : No
Forced                                   : No

Text #1
ID                                       : 3
Format                                   : UTF-8
Codec ID                                 : S_TEXT/UTF8
Codec ID/Info                            : UTF-8 Plain Text
Duration                                 : 1 h 55 min
Bit rate                                 : 33 b/s
Count of elements                        : 914
Stream size                              : 28.4 KiB (0%)
Title                                    : ~Ranvijay~
Language                                 : English
Default                                  : No
Forced                                   : No

Text #2
ID                                       : 5
Format                                   : VobSub
Muxing mode                              : zlib
Codec ID                                 : S_VOBSUB
Codec ID/Info                            : Picture based subtitle format used on DVDs
Duration                                 : 2 h 0 min
Bit rate                                 : 6 230 b/s
Count of elements                        : 1043
Stream size                              : 5.37 MiB (0%)
Title                                    : ~Ranvijay~
Language                                 : English
Default                                  : Yes
Forced                                   : Yes

Menu
00:00:00.000                             : en:Chapter 01
00:02:48.084                             : en:Chapter 02
00:06:43.236                             : en:Chapter 03
00:10:33.132                             : en:Chapter 04
00:14:21.402                             : en:Chapter 05
00:17:59.745                             : en:Chapter 06
00:20:31.146                             : en:Chapter 07
00:24:31.219                             : en:Chapter 08
00:27:22.390                             : en:Chapter 09
00:29:41.988                             : en:Chapter 10
00:34:21.893                             : en:Chapter 11
00:37:35.836                             : en:Chapter 12
00:41:18.476                             : en:Chapter 13
00:46:49.723                             : en:Chapter 14
00:50:29.109                             : en:Chapter 15
00:53:33.585                             : en:Chapter 16
00:58:03.271                             : en:Chapter 17
01:01:24.889                             : en:Chapter 18
01:04:32.243                             : en:Chapter 19
01:09:17.403                             : en:Chapter 20
01:12:24.089                             : en:Chapter 21
01:16:05.978                             : en:Chapter 22
01:18:30.288                             : en:Chapter 23
01:22:36.660                             : en:Chapter 24
01:25:50.562                             : en:Chapter 25
01:29:51.886                             : en:Chapter 26
01:34:05.973                             : en:Chapter 27
01:37:07.696                             : en:Chapter 28
01:39:58.993                             : en:Chapter 29
01:42:57.421                             : en:Chapter 30
01:45:03.588                             : en:Chapter 31
01:48:27.834                             : en:Chapter 32
01:51:29.516                             : en:Chapter 33
01:53:52.826                             : en:Chapter 34















Don't walk as you are king, walk as you don't care who the king is....!!





[url=http://www.facebook.com/groups/192253191390113/][/url]
Category:Movies > Dubs/Dual Audio
Lang:Hindi  Hindi
Total Size:4.64 GB
Info Hash:ef798ff2abc7f3f29d6966a00a75ea25d46a93bd
Added By:TheFighter
Date Added:11-10-2018 08:21:18

  

Files

File List: 
 File Size
Constantine (2005) 1080p BluRay x264 Dual Audio [Hindi DD2.0 Org - English DD5.1] - Esubs ~ Ranvijay.mkv4.62 GB
Sample - Constantine (2005) 1080p BluRay x264 Dual Audio [Hindi DD2.0 Org - English DD5.1] - Esubs ~ Ranvijay.mkv27 MB



Loading...
Comments

There are currently no comments. Be the first one to write something !

Disclaimer: None of the files shown here are actually hosted or transmitted by this server. The links are provided solely by this site's users. The site moderation is also a service provided by the site's users. The administrator of this site (ettv.tv) cannot be held responsible for what its users post, or any other actions of its users. You may not use this site to distribute or download any material when you do not have the legal rights to do so. It is your own responsibility to adhere to these terms.