the walking dead High Castle s03e07 etmovies doctor who s11e03 venom porn fgt ant man Lia M NASCAR Blindspot FEAR THE WALKING DEAD evo Greys Anatomy office 2019 WINDOWS 10 ncis the walking dead s09e03 Dtone 2018 ita vikings ethd 1080p 2018 "Alicia Monet" family guy 0 daredevil game of thrones ita formula 1 Lethal Weapon etrg modern family nfl Big bang theory Supergirl s04e02 supergirl the last ship ettv lopez nussa dtone shameless Survivor ddr arrow español wwe empire 2160p SUPERNATURAL hindi ita 2018 last week tonight lucifer season complete shameless s09e07 you walking dead the flash Better Call saul arrow Talking Dead american horror story girlsdoporn The Big Bang Theory 1080p YIFY doctor who incredibles 2 star trek discovery star trek discovery español 
Warning! Do not Download Without a VPN!
Your IP Address is .   Location is
Download and surf securely, stream unlimited and protect your personal data!
We strongly recommend using SpyOFF VPN!
Become Anonymous with SpyOFF
ETTV Recommended TV Shows
Arrow.S07E02.HDTV.x264-SVA[ettv] torrent
DCs.Legends.of.Tomorrow.S04E01.HDTV.x264-SVA[ettv] torrent
Magnum.P.I.2018.S01E05.HDTV.x264-SVA[ettv] torrent
Manifest.S01E05.HDTV.x264-KILLERS[ettv] torrent

ETTV Recommended Xvid
Mile.22.2018.HDRip.XviD.AC3-EVO[EtMovies] torrent
The.Scorpion.King.Book.of.Souls.2018.HDRip.XViD-ETRG torrent
BlacKkKlansman.2018.HDRip.XViD.AC3-ETRG torrent
A.Happening.of.Monumental.Proportions.2018.HDRip.XViD-ETRG torrent

ETTV Recommended HD
Incredibles.2.2018.1080p.WEB-DL.DD5.1.H264-CMRG[EtHD] torrent
BlacKkKlansman.2018.1080p.WEB-DL.DD5.1.H264-CMRG[EtHD] torrent
Scorpion.King.The.Book.of.Souls.2018.1080p.WEB-DL.H264.AC3-EVO[EtHD] torrent
Mile.22.2018.1080p.HDRip.X264.AC3-EVO[EtHD] torrent

ETTV Recommended UHD
Constantine.City.of.Demons.2018.2160p.BluRay.x265.10bit.HDR.DTS-HD.MA.5.1-SWTYBLZ[EtHD] torrent
Your.Name.2016.2160p.UHD.BluRay.x265-VALiS[EtHD] torrent
Peter.Rabbit.2018.PLDUB.DUAL.2160p.UHD.BluRay.x265-FLAME[EtHD] torrent
Death.Wish.2018 BluRay 2160p DTS MA5 1 x265 10bit-CHD[EtHD] torrent

ETTV Recommended Cam
Bad Times at the El Royale 2018.HDCAM.XViD.AC3-ETRG torrent
Goosebumps 2 Haunted Halloween 2018 HDTS.x264.AC3-ETRG torrent
Halloween 2018.HDCAM.XViD.AC3-ETRG torrent
Night School 2018 HDTS XViD AC3-ETRG torrent

ETTV Recommended Foreign
The Avengers Trilogy (2012-2018) 1080p BluRay x264 Dual Audio [Hindi - English] DD5.1 - ESUB ~ Ranvijay torrent
Naa.Bangaaru.Talli.2013.1080p.NF.WebDL.AVC.DDP.5.1-DTOne torrent
Insidious The Last Key (2017) 1080p BluRay x264 Dual Audio [Hindi DD5.1 640 Kbps - English DD5.1] - MSUBS ~ Ranvijay torrent
Chotay Shah 2016 Hindi Untouched WebDL 1080p x264 - mkvCinemas torrent

Social


Download Torrent "Rampage (2018) (1080p BluRay x265 HEVC 10bit AAC 7.1 Q22 Joy) REPACKED [UTR..."

IMDB Details
Description:

When three different animals become infected with a dangerous pathogen, a primatologist and a geneticist team up to stop them from destroying Chicago.

Genre:

Action, Adventure, Sci-Fi

Download Torrent (Magnet)
Download Torrent (File)
Seeds: 29
Leechers: 26
Completed: 279 
Last Checked: 30-07-2018 18:03:57


Loading...
Details
Title:Rampage (2018) (1080p BluRay x265 HEVC 10bit AAC 7.1 Q22 Joy) REPACKED [UTR...
Description:





Media Information
General
Format                                   : Matroska
Format version                           : Version 4 / Version 2
File size                                : 3.46 GiB
Duration                                 : 1 h 47 min
Overall bit rate                         : 4 618 kb/s
Movie name                               : Rampage 2018  (1080p x265 q22 S78 Joy)[UTR]
Encoded date                             : UTC 2018-07-26 19:07:39
Writing application                      : mkvmerge v24.0.0 ('Beyond The Pale') 64-bit
Writing library                          : libebml v1.3.6 + libmatroska v1.4.9
Cover                                    : Yes
Attachments                              : cover.jpg
Writing frontend                         : StaxRip v1.8.2.0

Video
ID                                       : 1
Format                                   : HEVC
Format/Info                              : High Efficiency Video Coding
Format profile                           : Main [email protected]@Main
Codec ID                                 : V_MPEGH/ISO/HEVC
Duration                                 : 1 h 47 min
Bit rate                                 : 3 707 kb/s
Width                                    : 1 920 pixels
Height                                   : 800 pixels
Display aspect ratio                     : 2.40:1
Frame rate mode                          : Constant
Frame rate                               : 23.976 (24000/1001) FPS
Color space                              : YUV
Chroma subsampling                       : 4:2:0
Bit depth                                : 10 bits
Bits/(Pixel*Frame)                       : 0.101
Stream size                              : 2.78 GiB (80%)
Writing library                          : x265 2.8+19-bcdc610cf5f0:[Windows][MSVC 1914][64 bit] 10bit
Encoding settings                        : cpuid=1111039 / frame-threads=3 / numa-pools=8 / wpp / no-pmode / no-pme / no-psnr / ssim / log-level=2 / input-csp=1 / input-res=1920x800 / interlace=0 / total-frames=154312 / level-idc=0 / high-tier=1 / uhd-bd=0 / ref=4 / no-allow-non-conformance / no-repeat-headers / annexb / no-aud / no-hrd / info / hash=0 / no-temporal-layers / open-gop / min-keyint=23 / keyint=250 / gop-lookahead=0 / bframes=4 / b-adapt=2 / b-pyramid / bframe-bias=0 / rc-lookahead=25 / lookahead-slices=4 / scenecut=40 / radl=0 / no-intra-refresh / ctu=64 / min-cu-size=8 / rect / no-amp / max-tu-size=32 / tu-inter-depth=1 / tu-intra-depth=1 / limit-tu=0 / rdoq-level=2 / dynamic-rd=0.00 / ssim-rd / signhide / no-tskip / nr-intra=0 / nr-inter=0 / no-constrained-intra / strong-intra-smoothing / max-merge=3 / limit-refs=3 / limit-modes / me=3 / subme=3 / merange=57 / temporal-mvp / weightp / no-weightb / no-analyze-src-pics / deblock=0:0 / sao / no-sao-non-deblock / rd=4 / early-skip / rskip / no-fast-intra / no-tskip-fast / no-cu-lossless / no-b-intra / no-splitrd-skip / rdpenalty=0 / psy-rd=1.20 / psy-rdoq=0.80 / no-rd-refine / no-lossless / cbqpoffs=0 / crqpoffs=0 / rc=crf / crf=21.5 / qcomp=0.60 / qpstep=4 / stats-write=0 / stats-read=0 / ipratio=1.40 / pbratio=1.30 / aq-mode=1 / aq-strength=1.00 / cutree / zone-count=0 / no-strict-cbr / qg-size=32 / no-rc-grain / qpmax=69 / qpmin=0 / no-const-vbv / sar=0 / overscan=0 / videoformat=5 / range=0 / colorprim=2 / transfer=2 / colormatrix=2 / chromaloc=0 / display-window=0 / max-cll=0,0 / min-luma=0 / max-luma=1023 / log2-max-poc-lsb=8 / vui-timing-info / vui-hrd-info / slices=1 / no-opt-qp-pps / no-opt-ref-list-length-pps / no-multi-pass-opt-rps / scenecut-bias=0.05 / no-opt-cu-delta-qp / no-aq-motion / no-hdr / no-hdr-opt / no-dhdr10-opt / no-idr-recovery-sei / analysis-reuse-level=5 / scale-factor=0 / refine-intra=0 / refine-inter=0 / refine-mv=0 / no-limit-sao / ctu-info=0 / no-lowpass-dct / refine-mv-type=0 / copy-pic=1 / max-ausize-factor=1.0 / no-dynamic-refine / no-single-sei
Default                                  : Yes
Forced                                   : No

Audio #1
ID                                       : 2
Format                                   : AAC
Format/Info                              : Advanced Audio Codec
Format profile                           : LC
Codec ID                                 : A_AAC
Duration                                 : 1 h 47 min
Bit rate                                 : 454 kb/s
Channel(s)                               : 7 channels
Channel(s)_Original                      : 8 channels
Channel positions                        : Front: L C R, Side: L R, Back: L R, LFE
Sampling rate                            : 48.0 kHz
Frame rate                               : 46.875 FPS (1024 spf)
Compression mode                         : Lossy
Delay relative to video                  : 9 ms
Stream size                              : 348 MiB (10%)
Language                                 : English
Default                                  : No
Forced                                   : No

Audio #2
ID                                       : 3
Format                                   : AAC
Format/Info                              : Advanced Audio Codec
Format profile                           : LC
Codec ID                                 : A_AAC
Duration                                 : 1 h 47 min
Bit rate                                 : 92.5 kb/s
Channel(s)                               : 2 channels
Channel positions                        : Front: L R
Sampling rate                            : 48.0 kHz
Frame rate                               : 46.875 FPS (1024 spf)
Compression mode                         : Lossy
Delay relative to video                  : 9 ms
Stream size                              : 70.9 MiB (2%)
Language                                 : French
Default                                  : No
Forced                                   : No

Audio #3
ID                                       : 4
Format                                   : AAC
Format/Info                              : Advanced Audio Codec
Format profile                           : LC
Codec ID                                 : A_AAC
Duration                                 : 1 h 47 min
Bit rate                                 : 92.7 kb/s
Channel(s)                               : 2 channels
Channel positions                        : Front: L R
Sampling rate                            : 48.0 kHz
Frame rate                               : 46.875 FPS (1024 spf)
Compression mode                         : Lossy
Delay relative to video                  : 9 ms
Stream size                              : 71.1 MiB (2%)
Language                                 : Chinese
Default                                  : No
Forced                                   : No

Audio #4
ID                                       : 5
Format                                   : AAC
Format/Info                              : Advanced Audio Codec
Format profile                           : LC
Codec ID                                 : A_AAC
Duration                                 : 1 h 47 min
Bit rate                                 : 96.0 kb/s
Channel(s)                               : 2 channels
Channel positions                        : Front: L R
Sampling rate                            : 48.0 kHz
Frame rate                               : 46.875 FPS (1024 spf)
Compression mode                         : Lossy
Delay relative to video                  : 9 ms
Stream size                              : 73.3 MiB (2%)
Language                                 : Spanish
Default                                  : No
Forced                                   : No

Audio #5
ID                                       : 6
Format                                   : AAC
Format/Info                              : Advanced Audio Codec
Format profile                           : LC
Codec ID                                 : A_AAC
Duration                                 : 1 h 47 min
Bit rate                                 : 96.0 kb/s
Channel(s)                               : 2 channels
Channel positions                        : Front: L R
Sampling rate                            : 48.0 kHz
Frame rate                               : 46.875 FPS (1024 spf)
Compression mode                         : Lossy
Delay relative to video                  : 9 ms
Stream size                              : 72.6 MiB (2%)
Language                                 : Russian
Default                                  : No
Forced                                   : No

Subtitle #1
ID                                       : 7
Format                                   : PGS
Muxing mode                              : zlib
Codec ID                                 : S_HDMV/PGS
Codec ID/Info                            : Picture based subtitle format used on BDs/HD-DVDs
Duration                                 : 1 h 45 min
Bit rate                                 : 34.6 kb/s
Count of elements                        : 3088
Stream size                              : 26.1 MiB (1%)
Language                                 : English
Default                                  : No
Forced                                   : No

Subtitle #2
ID                                       : 8
Format                                   : VobSub
Muxing mode                              : zlib
Codec ID                                 : S_VOBSUB
Codec ID/Info                            : Picture based subtitle format used on DVDs
Duration                                 : 1 h 38 min
Bit rate                                 : 3 299 b/s
Count of elements                        : 1253
Stream size                              : 2.33 MiB (0%)
Language                                 : Japanese
Default                                  : No
Forced                                   : No

Subtitle #3
ID                                       : 9
Format                                   : VobSub
Muxing mode                              : zlib
Codec ID                                 : S_VOBSUB
Codec ID/Info                            : Picture based subtitle format used on DVDs
Duration                                 : 1 h 10 min
Bit rate                                 : 870 b/s
Count of elements                        : 243
Stream size                              : 448 KiB (0%)
Language                                 : Japanese
Default                                  : No
Forced                                   : No

Subtitle #4
ID                                       : 10
Format                                   : VobSub
Muxing mode                              : zlib
Codec ID                                 : S_VOBSUB
Codec ID/Info                            : Picture based subtitle format used on DVDs
Duration                                 : 1 h 46 min
Bit rate                                 : 6 683 b/s
Count of elements                        : 1187
Stream size                              : 5.10 MiB (0%)
Language                                 : French
Default                                  : No
Forced                                   : No

Subtitle #5
ID                                       : 11
Format                                   : VobSub
Muxing mode                              : zlib
Codec ID                                 : S_VOBSUB
Codec ID/Info                            : Picture based subtitle format used on DVDs
Duration                                 : 1 h 46 min
Bit rate                                 : 6 873 b/s
Count of elements                        : 1199
Stream size                              : 5.25 MiB (0%)
Language                                 : Chinese
Default                                  : No
Forced                                   : No

Subtitle #6
ID                                       : 12
Format                                   : VobSub
Muxing mode                              : zlib
Codec ID                                 : S_VOBSUB
Codec ID/Info                            : Picture based subtitle format used on DVDs
Duration                                 : 1 h 47 min
Bit rate                                 : 8 507 b/s
Count of elements                        : 1509
Stream size                              : 6.52 MiB (0%)
Language                                 : Chinese
Default                                  : No
Forced                                   : No

Subtitle #7
ID                                       : 13
Format                                   : VobSub
Muxing mode                              : zlib
Codec ID                                 : S_VOBSUB
Codec ID/Info                            : Picture based subtitle format used on DVDs
Duration                                 : 1 h 46 min
Bit rate                                 : 6 764 b/s
Count of elements                        : 1287
Stream size                              : 5.16 MiB (0%)
Language                                 : Chinese
Default                                  : No
Forced                                   : No

Subtitle #8
ID                                       : 14
Format                                   : VobSub
Muxing mode                              : zlib
Codec ID                                 : S_VOBSUB
Codec ID/Info                            : Picture based subtitle format used on DVDs
Duration                                 : 1 h 46 min
Bit rate                                 : 5 683 b/s
Count of elements                        : 1267
Stream size                              : 4.34 MiB (0%)
Language                                 : Korean
Default                                  : No
Forced                                   : No

Subtitle #9
ID                                       : 15
Format                                   : VobSub
Muxing mode                              : zlib
Codec ID                                 : S_VOBSUB
Codec ID/Info                            : Picture based subtitle format used on DVDs
Duration                                 : 1 h 46 min
Bit rate                                 : 8 124 b/s
Count of elements                        : 1276
Stream size                              : 6.20 MiB (0%)
Language                                 : Spanish
Default                                  : No
Forced                                   : No

Subtitle #10
ID                                       : 16
Format                                   : VobSub
Muxing mode                              : zlib
Codec ID                                 : S_VOBSUB
Codec ID/Info                            : Picture based subtitle format used on DVDs
Duration                                 : 1 h 46 min
Bit rate                                 : 7 552 b/s
Count of elements                        : 1281
Stream size                              : 5.77 MiB (0%)
Language                                 : Portuguese
Default                                  : No
Forced                                   : No

Subtitle #11
ID                                       : 17
Format                                   : VobSub
Muxing mode                              : zlib
Codec ID                                 : S_VOBSUB
Codec ID/Info                            : Picture based subtitle format used on DVDs
Duration                                 : 1 h 46 min
Bit rate                                 : 4 415 b/s
Count of elements                        : 1301
Stream size                              : 3.37 MiB (0%)
Language                                 : Arabic
Default                                  : No
Forced                                   : No

Subtitle #12
ID                                       : 18
Format                                   : VobSub
Muxing mode                              : zlib
Codec ID                                 : S_VOBSUB
Codec ID/Info                            : Picture based subtitle format used on DVDs
Duration                                 : 1 h 46 min
Bit rate                                 : 6 562 b/s
Count of elements                        : 1294
Stream size                              : 5.01 MiB (0%)
Language                                 : Hebrew
Default                                  : No
Forced                                   : No

Subtitle #13
ID                                       : 19
Format                                   : VobSub
Muxing mode                              : zlib
Codec ID                                 : S_VOBSUB
Codec ID/Info                            : Picture based subtitle format used on DVDs
Duration                                 : 1 h 46 min
Bit rate                                 : 8 729 b/s
Count of elements                        : 1293
Stream size                              : 6.66 MiB (0%)
Language                                 : Russian
Default                                  : No
Forced                                   : No

Subtitle #14
ID                                       : 20
Format                                   : VobSub
Muxing mode                              : zlib
Codec ID                                 : S_VOBSUB
Codec ID/Info                            : Picture based subtitle format used on DVDs
Duration                                 : 1 h 46 min
Bit rate                                 : 8 310 b/s
Count of elements                        : 1300
Stream size                              : 6.34 MiB (0%)
Language                                 : Thai
Default                                  : No
Forced                                   : No

Subtitle #15
ID                                       : 21
Format                                   : VobSub
Muxing mode                              : zlib
Codec ID                                 : S_VOBSUB
Codec ID/Info                            : Picture based subtitle format used on DVDs
Duration                                 : 1 h 46 min
Bit rate                                 : 8 320 b/s
Count of elements                        : 1293
Stream size                              : 6.35 MiB (0%)
Language                                 : Turkish
Default                                  : No
Forced                                   : No

Subtitle #16
ID                                       : 22
Format                                   : VobSub
Muxing mode                              : zlib
Codec ID                                 : S_VOBSUB
Codec ID/Info                            : Picture based subtitle format used on DVDs
Duration                                 : 1 h 46 min
Bit rate                                 : 210 b/s
Count of elements                        : 19
Stream size                              : 164 KiB (0%)
Language                                 : French
Default                                  : No
Forced                                   : No

Subtitle #17
ID                                       : 23
Format                                   : VobSub
Muxing mode                              : zlib
Codec ID                                 : S_VOBSUB
Codec ID/Info                            : Picture based subtitle format used on DVDs
Duration                                 : 1 h 47 min
Bit rate                                 : 520 b/s
Count of elements                        : 74
Stream size                              : 408 KiB (0%)
Language                                 : Chinese
Default                                  : No
Forced                                   : No

Subtitle #18
ID                                       : 24
Format                                   : VobSub
Muxing mode                              : zlib
Codec ID                                 : S_VOBSUB
Codec ID/Info                            : Picture based subtitle format used on DVDs
Duration                                 : 1 h 46 min
Bit rate                                 : 262 b/s
Count of elements                        : 28
Stream size                              : 206 KiB (0%)
Language                                 : Spanish
Default                                  : No
Forced                                   : No

Subtitle #19
ID                                       : 25
Format                                   : VobSub
Muxing mode                              : zlib
Codec ID                                 : S_VOBSUB
Codec ID/Info                            : Picture based subtitle format used on DVDs
Duration                                 : 1 h 44 min
Bit rate                                 : 86 b/s
Count of elements                        : 14
Stream size                              : 66.3 KiB (0%)
Language                                 : Portuguese
Default                                  : No
Forced                                   : No

Subtitle #20
ID                                       : 26
Format                                   : VobSub
Muxing mode                              : zlib
Codec ID                                 : S_VOBSUB
Codec ID/Info                            : Picture based subtitle format used on DVDs
Duration                                 : 1 h 46 min
Bit rate                                 : 318 b/s
Count of elements                        : 35
Stream size                              : 249 KiB (0%)
Language                                 : Russian
Default                                  : No
Forced                                   : No

Subtitle #21
ID                                       : 27
Format                                   : VobSub
Muxing mode                              : zlib
Codec ID                                 : S_VOBSUB
Codec ID/Info                            : Picture based subtitle format used on DVDs
Duration                                 : 1 h 45 min
Bit rate                                 : 129 b/s
Count of elements                        : 23
Stream size                              : 100 KiB (0%)
Language                                 : Thai
Default                                  : No
Forced                                   : No

Subtitle #22
ID                                       : 28
Format                                   : VobSub
Muxing mode                              : zlib
Codec ID                                 : S_VOBSUB
Codec ID/Info                            : Picture based subtitle format used on DVDs
Duration                                 : 1 h 46 min
Bit rate                                 : 246 b/s
Count of elements                        : 30
Stream size                              : 193 KiB (0%)
Language                                 : Turkish
Default                                  : No
Forced                                   : No

Subtitle #23
ID                                       : 29
Format                                   : UTF-8
Codec ID                                 : S_TEXT/UTF8
Codec ID/Info                            : UTF-8 Plain Text
Duration                                 : 1 h 43 min
Bit rate                                 : 79 b/s
Count of elements                        : 1243
Stream size                              : 60.1 KiB (0%)
Language                                 : Arabic
Default                                  : No
Forced                                   : No

Subtitle #24
ID                                       : 30
Format                                   : UTF-8
Codec ID                                 : S_TEXT/UTF8
Codec ID/Info                            : UTF-8 Plain Text
Duration                                 : 1 h 39 min
Bit rate                                 : 39 b/s
Count of elements                        : 1257
Stream size                              : 29.1 KiB (0%)
Language                                 : Chinese
Default                                  : No
Forced                                   : No

Subtitle #25
ID                                       : 31
Format                                   : UTF-8
Codec ID                                 : S_TEXT/UTF8
Codec ID/Info                            : UTF-8 Plain Text
Duration                                 : 1 h 39 min
Bit rate                                 : 42 b/s
Count of elements                        : 954
Stream size                              : 30.7 KiB (0%)
Language                                 : Danish
Default                                  : No
Forced                                   : No

Subtitle #26
ID                                       : 32
Format                                   : UTF-8
Codec ID                                 : S_TEXT/UTF8
Codec ID/Info                            : UTF-8 Plain Text
Duration                                 : 1 h 39 min
Bit rate                                 : 46 b/s
Count of elements                        : 762
Stream size                              : 34.0 KiB (0%)
Language                                 : Dutch
Default                                  : No
Forced                                   : No

Subtitle #27
ID                                       : 33
Format                                   : UTF-8
Codec ID                                 : S_TEXT/UTF8
Codec ID/Info                            : UTF-8 Plain Text
Duration                                 : 1 h 39 min
Bit rate                                 : 86 b/s
Count of elements                        : 1268
Stream size                              : 62.8 KiB (0%)
Language                                 : Persian
Default                                  : No
Forced                                   : No

Subtitle #28
ID                                       : 34
Format                                   : UTF-8
Codec ID                                 : S_TEXT/UTF8
Codec ID/Info                            : UTF-8 Plain Text
Duration                                 : 1 h 39 min
Bit rate                                 : 60 b/s
Count of elements                        : 1348
Stream size                              : 44.5 KiB (0%)
Language                                 : Malay
Default                                  : No
Forced                                   : No

Subtitle #29
ID                                       : 35
Format                                   : UTF-8
Codec ID                                 : S_TEXT/UTF8
Codec ID/Info                            : UTF-8 Plain Text
Duration                                 : 1 h 37 min
Bit rate                                 : 57 b/s
Count of elements                        : 1259
Stream size                              : 41.5 KiB (0%)
Language                                 : Swedish
Default                                  : No
Forced                                   : No

Subtitle #30
ID                                       : 36
Format                                   : UTF-8
Codec ID                                 : S_TEXT/UTF8
Codec ID/Info                            : UTF-8 Plain Text
Duration                                 : 1 h 39 min
Bit rate                                 : 63 b/s
Count of elements                        : 1262
Stream size                              : 46.6 KiB (0%)
Language                                 : Vietnamese
Default                                  : No
Forced                                   : No

Menu
00:00:00.000                             : en:Chapter 1
00:12:58.527                             : en:Chapter 2
00:19:56.278                             : en:Chapter 3
00:29:53.291                             : en:Chapter 4
00:40:35.391                             : en:Chapter 5
00:49:10.906                             : en:Chapter 6
01:02:38.171                             : en:Chapter 7
01:10:37.650                             : en:Chapter 8
01:20:10.472                             : en:Chapter 9
01:29:23.608                             : en:Chapter 10
01:39:43.185                             : en:Chapter 11

Source Information
Release: Rampage.2018.2160p.BluRay.HEVC.TrueHD.7.1.Atmos-TERMiNAL


UTR wrote:

Note From UTR
We have no issue with individuals posting or re-uploading our torrents on a platform we aren't on. However, if this is something you'd like to do, please do so in a 'as-is' format. We ask that you do not create a new torrent, include all descriptions you see above including the UTR logo, tags, notes and screenshots. If you'd like to become a permanent poster on a website we don't post to, feel free to get in contact with a UniTeam member.

If possible please donate: BTC 1QA5fum5AyXvWzdVCkQzUNvw3Ef15fHRaR


Category:Movies > HEVC/x265
Lang:English  English
Total Size:3.86 GB
Info Hash:a1b04ab03e01aefa8b01e321d4a1ceeef5ba6e29
Added By:UTR
Date Added:30-07-2018 18:03:53

Files

File List: 
 File Size
Encoded by JoyBell (UTR).txt2.57 kB
Extras/Actors in Action.mkv71 MB
Extras/Attack on Chicago.mkv69 MB
Extras/Bringing George to Life.mkv79 MB
Extras/Gags and Gaffs.mkv17 MB
Extras/Not Just a Game Anymore.mkv42 MB
Extras/Rampage Extra Scenes Play All.mkv64 MB
Extras/Trio of Destruction.mkv68 MB
folder.jpg16.25 kB
How to play HEVC (THIS FILE).txt3.41 kB
Ninite K-Lite Codecs Unattended Silent Installer and Updater.website561.00 B
Rampage 2018 (1080p x265 q22 S78 Joy).mkv3.46 GB



Loading...
Comments

There are currently no comments. Be the first one to write something !

Disclaimer: None of the files shown here are actually hosted or transmitted by this server. The links are provided solely by this site's users. The site moderation is also a service provided by the site's users. The administrator of this site (ettv.tv) cannot be held responsible for what its users post, or any other actions of its users. You may not use this site to distribute or download any material when you do not have the legal rights to do so. It is your own responsibility to adhere to these terms.

Sitemap