avengers Yellowstone hindi arrow español suits deadpool ettv Elizabeth Bear LESBIAN ANAL SEX SLAVES shooter castle rock Killjoys S04E05 dragonheart curse S.W.A.T.2017.S01E01.HDTV.x264 KILLERS ettv IT.2017.720p.HC.HDRIP.x264.AC3 TiTAN fgt Jurassic world the 100 mountain men The Walking Dead Live pd dtone AMMORE E MALAVITA ethd Gotham wynonna earp evo Condor real time survivor bill maher the meg etmovies ETRG avengers infinity war Arrow.S06E02.HDTV.x264 LOL ettv ddr etrg big bang theory español upgrade 2018 star trek discovery español judge judy S22 Queen of The South elementary disenchantment preacher 720p BRRip x264 EVO deadpool 2 better call saul Survivor South Africa Killjoys 
Warning! Use a VPN When Downloading Torrents!
Your IP Address is 193.93.192.244. Location is United Kingdom
Your Internet Provider is tracking your torrent activity! Hide your IP ADDRESS with a VPN!
We strongly recommend using ExpressVPN to anonymize your torrenting. 30 Day Money Back Guarantee!
Try it Now!
ETTV Recommended TV Shows
Shooter.S03E09.WEB.x264-STRiFE[ettv] torrent
Wynonna.Earp.S03E05.HDTV.x264-KILLERS[ettv] torrent
Killjoys.S04E05.WEBRip.x264-PBS[ettv] torrent
Stan.Lees.Lucky.Man.S03E05.HDTV.x264-MTB[ettv] torrent

ETTV Recommended Xvid
Down.a.Dark.Hall.2018.HDRip.XViD-ETRG torrent
To.All.the.Boys.Ive.Loved.Before.2018.HDRip.XViD-ETRG torrent
Puppet.Master.The.Littlest.Reich.2018.HDRip.XViD-ETRG torrent
Riot.2018.HDRip.XviD.AC3-EVO[EtMovies] torrent

ETTV Recommended HD
Upgrade.2018.1080p.BluRay.x264-DRONES[EtHD] torrent
American.Animals.2018.1080p.BluRay.x264-DRONES[EtHD] torrent
Woman.Walks.Ahead.2017.1080p.BluRay.x264-ROVERS[EtHD] torrent
Furlough 2018 BluRay 1080p DTS-HD MA5.1 x264-MTeam[EtHD] torrent

ETTV Recommended Cam
The Meg 2018 720p TS-1XBET torrent
Mile.22.2018.HDCAM.XViD.AC3-ETRG torrent
A.X.L 2018 720p HDCAM HC ENG SUB-1XBET torrent
Alpha 2018 CAM-1XBET torrent

ETTV Recommended Foreign
Satyameva.Jayate.(2018).1-3.V2.Desi.Pre.Rip.x264.AC3-DTOne.10th.Anniversary torrent
Rolling.to.You.2018.720p.BluRay.DTS.x264-HDH[EtHD] torrent
Thamizh Padam 2 (2018) [TAMIL - 720p - WEB HDRip - x264 - DD 5.1 - ESub - 2GB] - MAZE torrent
Avengers.Infinity.War.(2018).1080p.[Dual.Audio].[Org.BD].{Hindi+Eng.6Ch}.-~{DOOMSDAY}~-. torrent

Social

Download Torrent "The Handmaid's Tale S02E08 (1080p WEBRip x265 HEVC 10bit AAC 5.1 Joy) [UTR]"

IMDB Details
Description:

N/A

Genre:

N/A

Download Torrent (Magnet)
Download Torrent (File)
Seeds: 147
Leechers: 25
Completed: 3,759 
Last Checked: 14-06-2018 10:31:43


Loading...
Details
Title:The Handmaid's Tale S02E08 (1080p WEBRip x265 HEVC 10bit AAC 5.1 Joy) [UTR]
Description:





Media Information
General
Format                                   : Matroska
Format version                           : Version 4 / Version 2
File size                                : 481 MiB
Duration                                 : 52 min 31 s
Overall bit rate                         : 1 281 kb/s
Encoded date                             : UTC 2018-06-09 19:12:03
Writing application                      : mkvmerge v21.0.0 ('Tardigrades Will Inherit The Earth') 64-bit
Writing library                          : libebml v1.3.5 + libmatroska v1.4.8
Writing frontend                         : StaxRip v1.7.0.6

Video
ID                                       : 1
Format                                   : HEVC
Format/Info                              : High Efficiency Video Coding
Format profile                           : Main [email protected]@Main
Codec ID                                 : V_MPEGH/ISO/HEVC
Duration                                 : 52 min 31 s
Bit rate                                 : 1 200 kb/s
Width                                    : 1 920 pixels
Height                                   : 960 pixels
Display aspect ratio                     : 2.000
Frame rate mode                          : Constant
Frame rate                               : 23.976 (24000/1001) FPS
Original frame rate                      : 24.000 FPS
Color space                              : YUV
Chroma subsampling                       : 4:2:0
Bit depth                                : 10 bits
Bits/(Pixel*Frame)                       : 0.027
Stream size                              : 451 MiB (94%)
Writing library                          : x265 2.7+2-22c127ff05d5:[Windows][MSVC 1900][64 bit] 10bit
Encoding settings                        : cpuid=1173503 / frame-threads=3 / numa-pools=8 / wpp / no-pmode / no-pme / no-psnr / ssim / log-level=2 / input-csp=1 / input-res=1920x960 / interlace=0 / total-frames=75555 / level-idc=0 / high-tier=1 / uhd-bd=0 / ref=4 / no-allow-non-conformance / no-repeat-headers / annexb / no-aud / no-hrd / info / hash=0 / no-temporal-layers / open-gop / min-keyint=24 / keyint=250 / gop-lookahead=0 / bframes=4 / b-adapt=2 / b-pyramid / bframe-bias=0 / rc-lookahead=25 / lookahead-slices=4 / scenecut=40 / radl=0 / no-intra-refresh / ctu=64 / min-cu-size=8 / rect / no-amp / max-tu-size=32 / tu-inter-depth=1 / tu-intra-depth=1 / limit-tu=0 / rdoq-level=2 / dynamic-rd=0.00 / ssim-rd / signhide / no-tskip / nr-intra=0 / nr-inter=0 / no-constrained-intra / strong-intra-smoothing / max-merge=3 / limit-refs=3 / limit-modes / me=3 / subme=3 / merange=57 / temporal-mvp / weightp / weightb / no-analyze-src-pics / deblock=0:0 / sao / sao-non-deblock / rd=6 / no-early-skip / rskip / no-fast-intra / no-tskip-fast / no-cu-lossless / b-intra / no-splitrd-skip / rdpenalty=0 / psy-rd=5.00 / psy-rdoq=1.55 / no-rd-refine / no-lossless / cbqpoffs=0 / crqpoffs=0 / rc=abr / bitrate=1200 / qcomp=0.60 / qpstep=4 / stats-write=0 / stats-read=2 / cplxblur=20.0 / qblur=0.5 / ipratio=1.40 / pbratio=1.30 / aq-mode=3 / aq-strength=1.00 / cutree / zone-count=0 / no-strict-cbr / qg-size=32 / no-rc-grain / qpmax=69 / qpmin=0 / no-const-vbv / sar=0 / overscan=0 / videoformat=5 / range=0 / colorprim=2 / transfer=2 / colormatrix=2 / chromaloc=0 / display-window=0 / max-cll=0,0 / min-luma=0 / max-luma=1023 / log2-max-poc-lsb=8 / vui-timing-info / vui-hrd-info / slices=1 / no-opt-qp-pps / no-opt-ref-list-length-pps / multi-pass-opt-rps / scenecut-bias=0.05 / no-opt-cu-delta-qp / no-aq-motion / no-hdr / no-hdr-opt / no-dhdr10-opt / analysis-reuse-level=5 / scale-factor=0 / refine-intra=0 / refine-inter=0 / refine-mv=0 / limit-sao / ctu-info=0 / no-lowpass-dct / refine-mv-type=0 / copy-pic=1
Default                                  : Yes
Forced                                   : No

Audio
ID                                       : 2
Format                                   : AAC
Format/Info                              : Advanced Audio Codec
Format profile                           : HE-AAC / LC
Codec ID                                 : A_AAC
Duration                                 : 52 min 31 s
Bit rate                                 : 78.9 kb/s
Channel(s)                               : 2 channels
Channel positions                        : Front: L R
Sampling rate                            : 48.0 kHz / 24.0 kHz
Frame rate                               : 23.438 FPS (1024 spf)
Compression mode                         : Lossy
Delay relative to video                  : 31 ms
Stream size                              : 29.6 MiB (6%)
Language                                 : English
Default                                  : Yes
Forced                                   : No

Subtitle #1
ID                                       : 3
Format                                   : UTF-8
Codec ID                                 : S_TEXT/UTF8
Codec ID/Info                            : UTF-8 Plain Text
Duration                                 : 52 min 9 s
Bit rate                                 : 43 b/s
Count of elements                        : 543
Stream size                              : 16.4 KiB (0%)
Language                                 : English
Default                                  : No
Forced                                   : No

Subtitle #2
ID                                       : 4
Format                                   : UTF-8
Codec ID                                 : S_TEXT/UTF8
Codec ID/Info                            : UTF-8 Plain Text
Duration                                 : 52 min 9 s
Bit rate                                 : 43 b/s
Count of elements                        : 543
Stream size                              : 16.6 KiB (0%)
Language                                 : Spanish
Default                                  : No
Forced                                   : No

Menu
00:00:00.000                             : en:Chapter 1
00:09:04.375                             : en:Chapter 2
00:15:57.916                             : en:Chapter 3
00:29:16.500                             : en:Chapter 4
00:42:39.458                             : en:Chapter 5

Source Information
Release: The.Handmaid's.Tale.S02E08.Women's.Work.1080p.HULU.WEB-DL.AAC2.0.H.264-NTb.mkv (1.23 GBs)



UTR wrote:

Note From UTR
We have no issue with individuals posting or re-uploading our torrents on a platform we aren't on. However, if this is something you'd like to do, please do so in a 'as-is' format. We ask that you do not create a new torrent, include all descriptions you see above including the UTR logo, tags, notes and screenshots. If you'd like to become a permanent poster on a website we don't post to, feel free to get in contact with a UniTeam member.

If possible please donate: BTC 1QA5fum5AyXvWzdVCkQzUNvw3Ef15fHRaR


Category:TV > HEVC/x265
Lang:English  English
Total Size:481 MB
Info Hash:b42948712f55b55fc3bcfbd1867e709081b623d5
Added By:UTR
Date Added:14-06-2018 10:31:39

Files

File List: 
 File Size
The Handmaid's Tale S02E08 Women's Work (1080p x265 10bit S91 Joy).mkv481 MB



Loading...
Comments

There are currently no comments. Be the first one to write something !

Disclaimer: None of the files shown here are actually hosted or transmitted by this server. The links are provided solely by this site's users. The site moderation is also a service provided by the site's users. The administrator of this site (ettv.tv) cannot be held responsible for what its users post, or any other actions of its users. You may not use this site to distribute or download any material when you do not have the legal rights to do so. It is your own responsibility to adhere to these terms.