avengers Yellowstone hindi arrow español suits deadpool ettv Elizabeth Bear LESBIAN ANAL SEX SLAVES shooter castle rock Killjoys S04E05 dragonheart curse S.W.A.T.2017.S01E01.HDTV.x264 KILLERS ettv IT.2017.720p.HC.HDRIP.x264.AC3 TiTAN fgt Jurassic world the 100 mountain men The Walking Dead Live pd dtone AMMORE E MALAVITA ethd Gotham wynonna earp evo Condor real time survivor bill maher the meg etmovies ETRG avengers infinity war Arrow.S06E02.HDTV.x264 LOL ettv ddr etrg big bang theory español upgrade 2018 star trek discovery español judge judy S22 Queen of The South elementary disenchantment preacher 720p BRRip x264 EVO deadpool 2 better call saul Survivor South Africa Killjoys 
Warning! Use a VPN When Downloading Torrents!
Your IP Address is 185.2.32.16. Location is Germany
Your Internet Provider is tracking your torrent activity! Hide your IP ADDRESS with a VPN!
We strongly recommend using ExpressVPN to anonymize your torrenting. 30 Day Money Back Guarantee!
Try it Now!
ETTV Recommended TV Shows
Shooter.S03E09.WEB.x264-STRiFE[ettv] torrent
Wynonna.Earp.S03E05.HDTV.x264-KILLERS[ettv] torrent
Killjoys.S04E05.WEBRip.x264-PBS[ettv] torrent
Stan.Lees.Lucky.Man.S03E05.HDTV.x264-MTB[ettv] torrent

ETTV Recommended Xvid
Down.a.Dark.Hall.2018.HDRip.XViD-ETRG torrent
To.All.the.Boys.Ive.Loved.Before.2018.HDRip.XViD-ETRG torrent
Puppet.Master.The.Littlest.Reich.2018.HDRip.XViD-ETRG torrent
Riot.2018.HDRip.XviD.AC3-EVO[EtMovies] torrent

ETTV Recommended HD
Upgrade.2018.1080p.BluRay.x264-DRONES[EtHD] torrent
American.Animals.2018.1080p.BluRay.x264-DRONES[EtHD] torrent
Woman.Walks.Ahead.2017.1080p.BluRay.x264-ROVERS[EtHD] torrent
Furlough 2018 BluRay 1080p DTS-HD MA5.1 x264-MTeam[EtHD] torrent

ETTV Recommended Cam
The Meg 2018 720p TS-1XBET torrent
Mile.22.2018.HDCAM.XViD.AC3-ETRG torrent
A.X.L 2018 720p HDCAM HC ENG SUB-1XBET torrent
Alpha 2018 CAM-1XBET torrent

ETTV Recommended Foreign
Satyameva.Jayate.(2018).1-3.V2.Desi.Pre.Rip.x264.AC3-DTOne.10th.Anniversary torrent
Rolling.to.You.2018.720p.BluRay.DTS.x264-HDH[EtHD] torrent
Thamizh Padam 2 (2018) [TAMIL - 720p - WEB HDRip - x264 - DD 5.1 - ESub - 2GB] - MAZE torrent
Avengers.Infinity.War.(2018).1080p.[Dual.Audio].[Org.BD].{Hindi+Eng.6Ch}.-~{DOOMSDAY}~-. torrent

Social

Download Torrent "Pusher II With Blood on My Hands (2004) (1080p BluRay 10bit x265 HEVC AAC 5..."

IMDB Details
Description:

N/A

Genre:

N/A

Download Torrent (Magnet)
Download Torrent (File)
Seeds: 12
Leechers: 8
Completed: 317 
Last Checked: 14-06-2018 10:09:00


Loading...
Details
Title:Pusher II With Blood on My Hands (2004) (1080p BluRay 10bit x265 HEVC AAC 5...
Description:





Media Information
General
Format                                   : Matroska
Format version                           : Version 4 / Version 2
File size                                : 5.06 GiB
Duration                                 : 1 h 36 min
Overall bit rate                         : 7 508 kb/s
Encoded date                             : UTC 2018-06-11 02:11:53
Writing application                      : mkvmerge v24.0.0 ('Beyond The Pale') 64-bit
Writing library                          : libebml v1.3.6 + libmatroska v1.4.9

Video
ID                                       : 1
Format                                   : HEVC
Format/Info                              : High Efficiency Video Coding
Format profile                           : Main [email protected]@Main
Codec ID                                 : V_MPEGH/ISO/HEVC
Duration                                 : 1 h 36 min
Bit rate                                 : 7 225 kb/s
Width                                    : 1 920 pixels
Height                                   : 1 080 pixels
Display aspect ratio                     : 16:9
Frame rate mode                          : Constant
Frame rate                               : 25.000 FPS
Color space                              : YUV
Chroma subsampling                       : 4:2:0
Bit depth                                : 10 bits
Bits/(Pixel*Frame)                       : 0.139
Stream size                              : 4.85 GiB (96%)
Writing library                          : x265 2.8+15-d693a5aa5541:[Windows][MSVC 1914][64 bit] 10bit
Encoding settings                        : cpuid=1111039 / frame-threads=4 / numa-pools=16 / wpp / no-pmode / no-pme / no-psnr / no-ssim / log-level=2 / input-csp=1 / input-res=1920x1080 / interlace=0 / total-frames=144024 / level-idc=0 / high-tier=1 / uhd-bd=0 / ref=4 / no-allow-non-conformance / no-repeat-headers / annexb / no-aud / no-hrd / info / hash=0 / no-temporal-layers / open-gop / min-keyint=25 / keyint=250 / gop-lookahead=0 / bframes=8 / b-adapt=2 / b-pyramid / bframe-bias=0 / rc-lookahead=50 / lookahead-slices=4 / scenecut=40 / radl=0 / no-intra-refresh / ctu=64 / min-cu-size=8 / no-rect / no-amp / max-tu-size=32 / tu-inter-depth=1 / tu-intra-depth=1 / limit-tu=0 / rdoq-level=2 / dynamic-rd=0.00 / no-ssim-rd / signhide / no-tskip / nr-intra=0 / nr-inter=0 / no-constrained-intra / no-strong-intra-smoothing / max-merge=3 / limit-refs=3 / limit-modes / me=3 / subme=3 / merange=57 / temporal-mvp / weightp / no-weightb / no-analyze-src-pics / deblock=-1:-1 / no-sao / no-sao-non-deblock / rd=4 / no-early-skip / no-rskip / no-fast-intra / no-tskip-fast / no-cu-lossless / b-intra / no-splitrd-skip / rdpenalty=0 / psy-rd=1.00 / psy-rdoq=2.50 / no-rd-refine / no-lossless / cbqpoffs=0 / crqpoffs=0 / rc=crf / crf=21.0 / qcomp=0.60 / qpstep=4 / stats-write=0 / stats-read=0 / ipratio=1.40 / pbratio=1.30 / aq-mode=2 / aq-strength=1.00 / cutree / zone-count=0 / no-strict-cbr / qg-size=32 / no-rc-grain / qpmax=69 / qpmin=0 / no-const-vbv / sar=0 / overscan=0 / videoformat=5 / range=0 / colorprim=2 / transfer=2 / colormatrix=2 / chromaloc=0 / display-window=0 / max-cll=0,0 / min-luma=0 / max-luma=1023 / log2-max-poc-lsb=8 / vui-timing-info / vui-hrd-info / slices=1 / no-opt-qp-pps / no-opt-ref-list-length-pps / no-multi-pass-opt-rps / scenecut-bias=0.05 / no-opt-cu-delta-qp / no-aq-motion / no-hdr / no-hdr-opt / no-dhdr10-opt / no-idr-recovery-sei / analysis-reuse-level=5 / scale-factor=0 / refine-intra=0 / refine-inter=0 / refine-mv=0 / no-limit-sao / ctu-info=0 / no-lowpass-dct / refine-mv-type=0 / copy-pic=1 / max-ausize-factor=1.0 / no-dynamic-refine / no-single-sei
Language                                 : Danish
Default                                  : Yes
Forced                                   : No

Audio
ID                                       : 2
Format                                   : AAC
Format/Info                              : Advanced Audio Codec
Format profile                           : LC
Codec ID                                 : A_AAC
Duration                                 : 1 h 36 min
Bit rate                                 : 300 kb/s
Channel(s)                               : 6 channels
Channel positions                        : Front: L C R, Side: L R, LFE
Sampling rate                            : 48.0 kHz
Frame rate                               : 46.875 FPS (1024 spf)
Compression mode                         : Lossy
Delay relative to video                  : 9 ms
Stream size                              : 207 MiB (4%)
Language                                 : Danish
Default                                  : Yes
Forced                                   : No

Subtitle
ID                                       : 3
Format                                   : PGS
Muxing mode                              : zlib
Codec ID                                 : S_HDMV/PGS
Codec ID/Info                            : Picture based subtitle format used on BDs/HD-DVDs
Duration                                 : 1 h 30 min
Bit rate                                 : 29.5 kb/s
Count of elements                        : 1642
Stream size                              : 19.0 MiB (0%)
Language                                 : German
Default                                  : Yes
Forced                                   : No

Menu
00:00:00.000                             : en:Intro
00:08:04.400                             : en:Duke's Garage
00:13:08.800                             : en:Incapable
00:17:37.200                             : en:Brutal Info
00:23:52.400                             : en:Car Heist
00:31:19.200                             : en:Baby Boy
00:35:29.600                             : en:Lost Product
00:41:51.200                             : en:Muhammad
00:52:00.000                             : en:Family Time
00:56:23.200                             : en:Tonny's Mother
01:04:08.400                             : en:Wedding Party
01:08:16.800                             : en:Deception
01:13:09.200                             : en:Complex Problem
01:21:00.400                             : en:Murder Penance
01:27:54.000                             : en:Breaking Point
01:30:42.400                             : en:End Credits


Source Information
Release: Unknown Source/NO-GROUP


UTR wrote:

Note From UTR
We have no issue with individuals posting or re-uploading our torrents on a platform we aren't on. However, if this is something you'd like to do, please do so in a 'as-is' format. We ask that you do not create a new torrent, include all descriptions you see above including the UTR logo, tags, notes and screenshots. If you'd like to become a permanent poster on a website we don't post to, feel free to get in contact with a UniTeam member.

If possible please donate: BTC 1QA5fum5AyXvWzdVCkQzUNvw3Ef15fHRaR


Category:Movies > HEVC/x265
Lang:English  English
Total Size:5.06 GB
Info Hash:cd5b90818268a9cf930f870f76e36a499138bdc1
Added By:UTR
Date Added:14-06-2018 10:08:57

Files

File List: 
 File Size
Pusher.II.With.Blood.on.My.Hands.(2004).1080p.BluRay.10-bit.x265.AAC.5.1 Qman[UTR].mkv5.06 GB



Loading...
Comments

There are currently no comments. Be the first one to write something !

Disclaimer: None of the files shown here are actually hosted or transmitted by this server. The links are provided solely by this site's users. The site moderation is also a service provided by the site's users. The administrator of this site (ettv.tv) cannot be held responsible for what its users post, or any other actions of its users. You may not use this site to distribute or download any material when you do not have the legal rights to do so. It is your own responsibility to adhere to these terms.