Vikings.S04e06 720p BRRip x264 EVO ARETHA FRANKLIN Survivor South Africa Disenchantment the flash ettv avengers infinity war The Walking Dead deadpool dtone Condor arrow español Salvation ddr Yellowstone The 100 hindi upgrade fgt GOTHAM 2018 ita etmovies S.W.A.T.2017.S01E01.HDTV.x264 KILLERS ettv castle rock mr robot en español 0 westworld elementary etrg evo big bang theory español Queen of The South star trek discovery español Shooter S03E09 avengers AMMORE E MALAVITA deadpool 2 IT.2017.720p.HC.HDRIP.x264.AC3 TiTAN Arrow.S06E02.HDTV.x264 LOL ettv shooter ethd suits Who Is America judge judy S22 Elizabeth Bear survivor the meg LESBIAN ANAL SEX SLAVES better call saul 1080p.BluRay.x264.DTS WiKi mountain men yellowstone s01e08 Upgrade 2018 snowfall jurassic world 
Warning! Use a VPN When Downloading Torrents!
Your IP Address is 185.251.71.227. Location is
Your Internet Provider is tracking your torrent activity! Hide your IP ADDRESS with a VPN!
We strongly recommend using ExpressVPN to anonymize your torrenting. 30 Day Money Back Guarantee!
Try it Now!
ETTV Recommended TV Shows
Shooter.S03E09.WEB.x264-STRiFE[ettv] torrent
Wynonna.Earp.S03E05.HDTV.x264-KILLERS[ettv] torrent
Killjoys.S04E05.WEBRip.x264-PBS[ettv] torrent
Stan.Lees.Lucky.Man.S03E05.HDTV.x264-MTB[ettv] torrent

ETTV Recommended Xvid
Down.a.Dark.Hall.2018.HDRip.XViD-ETRG torrent
To.All.the.Boys.Ive.Loved.Before.2018.HDRip.XViD-ETRG torrent
Puppet.Master.The.Littlest.Reich.2018.HDRip.XViD-ETRG torrent
Riot.2018.HDRip.XviD.AC3-EVO[EtMovies] torrent

ETTV Recommended HD
Upgrade.2018.1080p.BluRay.x264-DRONES[EtHD] torrent
American.Animals.2018.1080p.BluRay.x264-DRONES[EtHD] torrent
Woman.Walks.Ahead.2017.1080p.BluRay.x264-ROVERS[EtHD] torrent
Furlough 2018 BluRay 1080p DTS-HD MA5.1 x264-MTeam[EtHD] torrent

ETTV Recommended Cam
The Meg 2018 720p TS-1XBET torrent
Mile.22.2018.HDCAM.XViD.AC3-ETRG torrent
A.X.L 2018 720p HDCAM HC ENG SUB-1XBET torrent
Alpha 2018 CAM-1XBET torrent

ETTV Recommended Foreign
Satyameva.Jayate.(2018).1-3.V2.Desi.Pre.Rip.x264.AC3-DTOne.10th.Anniversary torrent
Rolling.to.You.2018.720p.BluRay.DTS.x264-HDH[EtHD] torrent
Thamizh Padam 2 (2018) [TAMIL - 720p - WEB HDRip - x264 - DD 5.1 - ESub - 2GB] - MAZE torrent
Avengers.Infinity.War.(2018).1080p.[Dual.Audio].[Org.BD].{Hindi+Eng.6Ch}.-~{DOOMSDAY}~-. torrent

Social

Download Torrent "The Adjustment Bureau (2011) 1080p BluRay x264 Dual Audio [Hindi DD5.1 - En..."

IMDB Details
Description:

The affair between a politician and a contemporary dancer is affected by mysterious forces keeping the lovers apart.

Genre:

Romance, Sci-Fi, Thriller

Download Torrent (Magnet)
Download Torrent (File)
Seeds: 28
Leechers: 31
Completed: 420 
Last Checked: 18-05-2018 18:04:23


Loading...
Details
Title:The Adjustment Bureau (2011) 1080p BluRay x264 Dual Audio [Hindi DD5.1 - En...
Description:




The Adjustment Bureau (2011) 1080p BluRay x264 Dual Audio [Hindi DD5.1 - English DD5.1] - Esubs ~ Ranvijay

Buy RDP Online



Format                                   : Matroska
Format version                           : Version 4 / Version 2
File size                                : 4.76 GiB
Duration                                 : 1 h 45 min
Overall bit rate                         : 6 442 kb/s
Movie name                               : The Adjustment Bureau (2011) 1080p BluRay x264 Dual Audio [Hindi DD5.1 - English DD5.1] - Esubs ~ Ranvijay

Video
ID                                       : 1
Format                                   : AVC
Format/Info                              : Advanced Video Codec
Duration                                 : 1 h 45 min
Bit rate                                 : 5 528 kb/s
Width                                    : 1 920 pixels
Height                                   : 1 040 pixels
Display aspect ratio                     : 1.85:1
Frame rate mode                          : Constant
Frame rate                               : 23.976 (24000/1001) FPS
Stream size                              : 4.09 GiB (86%)
Title                                    : ~Ranvijay~
Language                                 : English
Default                                  : Yes
Forced                                   : No

Audio #1
ID                                       : 2
Format                                   : AC-3
Format/Info                              : Audio Coding 3
Codec ID                                 : A_AC3
Duration                                 : 1 h 45 min
Bit rate mode                            : Constant
Bit rate                                 : 448 kb/s
Channel(s)                               : 6 channels
Channel positions                        : Front: L C R, Side: L R, LFE
Sampling rate                            : 48.0 kHz
Frame rate                               : 31.250 FPS (1536 SPF)
Bit depth                                : 16 bits
Compression mode                         : Lossy
Delay relative to video                  : 1 s 800 ms
Stream size                              : 339 MiB (7%)
Title                                    : ~Ranvijay~
Language                                 : Hindi
Service kind                             : Complete Main
Default                                  : Yes
Forced                                   : No

Audio #2
ID                                       : 3
Format                                   : AC-3
Format/Info                              : Audio Coding 3
Codec ID                                 : A_AC3
Duration                                 : 1 h 45 min
Bit rate mode                            : Constant
Bit rate                                 : 448 kb/s
Channel(s)                               : 6 channels
Channel positions                        : Front: L C R, Side: L R, LFE
Sampling rate                            : 48.0 kHz
Frame rate                               : 31.250 FPS (1536 SPF)
Bit depth                                : 16 bits
Compression mode                         : Lossy
Stream size                              : 339 MiB (7%)
Title                                    : ~Ranvijay~
Language                                 : English
Service kind                             : Complete Main
Default                                  : No
Forced                                   : No

Text #1
ID                                       : 4
Format                                   : PGS
Muxing mode                              : zlib
Codec ID                                 : S_HDMV/PGS
Codec ID/Info                            : Picture based subtitle format used on BDs/HD-DVDs
Duration                                 : 1 h 38 min
Bit rate                                 : 64.2 kb/s
Count of elements                        : 3219
Stream size                              : 45.5 MiB (1%)
Title                                    : ~Ranvijay~
Language                                 : English
Default                                  : Yes
Forced                                   : No

Text #2
ID                                       : 5
Format                                   : UTF-8
Codec ID                                 : S_TEXT/UTF8
Codec ID/Info                            : UTF-8 Plain Text
Duration                                 : 1 h 37 min
Bit rate                                 : 67 b/s
Count of elements                        : 1554
Stream size                              : 48.6 KiB (0%)
Title                                    : ~Ranvijay~
Language                                 : English
Default                                  : No
Forced                                   : No
















Category:Movies > Dubs/Dual Audio
Lang:Hindi  Hindi
Total Size:4.80 GB
Info Hash:94367834429dd4559232263d4946b7d4988db348
Added By:TheFighter
Date Added:18-05-2018 18:04:16

  

Files

File List: 
 File Size
Sample - The Adjustment Bureau (2011) 1080p.mkv33 MB
The Adjustment Bureau (2011) 1080p BluRay x264 Dual Audio [Hindi DD5.1 - English DD5.1] - Esubs ~ Ranvijay.mkv4.76 GB



Loading...
Comments

There are currently no comments. Be the first one to write something !

Disclaimer: None of the files shown here are actually hosted or transmitted by this server. The links are provided solely by this site's users. The site moderation is also a service provided by the site's users. The administrator of this site (ettv.tv) cannot be held responsible for what its users post, or any other actions of its users. You may not use this site to distribute or download any material when you do not have the legal rights to do so. It is your own responsibility to adhere to these terms.