AMMORE E MALAVITA judge judy S22 Elizabeth Bear the flash ita etrg adobe cc 2018 adobe 2018 ita better call saul Killjoys S04E05 Disenchantment Live pd avengers infinity war arrow español game of thrones ddr evo The Walking Dead LESBIAN ANAL SEX SLAVES dtone preacher legends of tomorrow ita etmovies deadpool shooter rhinoceros 6 ETRG arrow ita big bang theory español avid ethd Power ettv Deadpool 2 ita Queen of The South suits 720p BRRip x264 EVO elementary fgt hindi IT.2017.720p.HC.HDRIP.x264.AC3 TiTAN the 100 avengers Yellowstone killjoys the flash 4x13 upgrade 2018 wwe Arrow.S06E02.HDTV.x264 LOL ettv Condor 1080p Survivor S.W.A.T.2017.S01E01.HDTV.x264 KILLERS ettv deadpool 2 fringe ita the flash ita AMZN jurassic world Jurassic World Fallen Kingdom 
Warning! Use a VPN When Downloading Torrents!
Your IP Address is 185.252.187.40. Location is
Your Internet Provider is tracking your torrent activity! Hide your IP ADDRESS with a VPN!
We strongly recommend using ExpressVPN to anonymize your torrenting. 30 Day Money Back Guarantee!
Try it Now!
ETTV Recommended TV Shows
Preacher.S03E09.HDTV.x264-SVA[ettv] torrent
Fear.the.Walking.Dead.S04E10.HDTV.x264-SVA[ettv] torrent
Sharp.Objects.S01E07.WEBRip.x264-PBS[ettv] torrent
Shades.of.Blue.S03E10.HDTV.x264-KILLERS[ettv] torrent

ETTV Recommended Xvid
Beast.2018.BRRip.XviD.AC3-EVO[EtMovies] torrent
Breaking.And.Exiting.2018.HDRip.XviD.AC3-EVO[EtMovies] torrent
Benched.2018.HDRip.XviD.AC3-EVO[EtMovies] torrent
Charismata.2017.DVDRip.XViD-ETRG torrent

ETTV Recommended HD
American.Animals.2018.1080p.BluRay.x264-DRONES[EtHD] torrent
Woman.Walks.Ahead.2017.1080p.BluRay.x264-ROVERS[EtHD] torrent
Beast.2017.1080p.BluRay.X264-AMIABLE[EtHD] torrent
Deadpool-2.2018.Super.Duper.Cut.UHD.2160p.Bluray.Remux.Atmos.7.1-DTOne torrent

ETTV Recommended Cam
Mile.22.2018.HDCAM.XViD.AC3-ETRG torrent
A.X.L 2018 720p HDCAM HC ENG SUB-1XBET torrent
Alpha 2018 NEW 720p HDCAM ENG SUB-24HD torrent
Crazy.Rich.Asians.2018.CAM.XViD.AC3-ETRG torrent

ETTV Recommended Foreign
Satyameva.Jayate.(2018).1-3.V2.Desi.Pre.Rip.x264.AC3-DTOne.10th.Anniversary torrent
Thamizh Padam 2 (2018) [TAMIL - 720p - WEB HDRip - x264 - DD 5.1 - ESub - 2GB] - MAZE torrent
Avengers Infinity War 2018 BRRip 720p Dual Audio [Hindi Org BD 5.1 - Eng] ESub - mkvCinemas torrent
The.Mimic.2017.1080p.BluRay.x264-SADPANDA[EtHD] torrent

Social

Download Torrent "The 100 S05E04 Pandoras Box 1080p AMZN WEBRip x265 AAC 5.1 D0ct0rLew[UTR]"

IMDB Details
Description:

N/A

Genre:

N/A

Download Torrent (Magnet)
Download Torrent (File)
Seeds: 46
Leechers: 9
Completed: 652 
Last Checked: 17-05-2018 05:30:34


Details
Title:The 100 S05E04 Pandoras Box 1080p AMZN WEBRip x265 AAC 5.1 D0ct0rLew[UTR]
Description:





Media Information

Unique ID                                : 231903305715626145994752347361966377375 (0xAE76F3BABAABADEAABCD158F7E9D499F)
Complete name                            : The 100 S05E04 Pandoras Box 1080p AMZN WEBRip  x265 AAC 5.1  D0ct0rLew[UTR].mkv
Format                                   : Matroska
Format version                           : Version 4 / Version 2
File size                                : 1.26 GiB
Duration                                 : 42 min 6 s
Overall bit rate                         : 4 281 kb/s
Encoded date                             : UTC 2018-05-17 00:23:05
Writing application                      : mkvmerge v15.0.0 ('Duel with the Devil') 64-bit
Writing library                          : libebml v1.3.5 + libmatroska v1.4.5

Video
ID                                       : 3
Format                                   : HEVC
Format/Info                              : High Efficiency Video Coding
Format profile                           : Main [email protected]@Main
Codec ID                                 : V_MPEGH/ISO/HEVC
Duration                                 : 42 min 6 s
Bit rate                                 : 3 830 kb/s
Width                                    : 1 920 pixels
Height                                   : 1 080 pixels
Display aspect ratio                     : 16:9
Frame rate mode                          : Constant
Frame rate                               : 23.976 (24000/1001) FPS
Color space                              : YUV
Chroma subsampling                       : 4:2:0
Bit depth                                : 10 bits
Bits/(Pixel*Frame)                       : 0.077
Stream size                              : 1.13 GiB (89%)
Writing library                          : x265 2.7+25-e1ed4d609b52:[Windows][MSVC 1914][64 bit] 10bit
Encoding settings                        : cpuid=1050111 / frame-threads=3 / numa-pools=8 / wpp / no-pmode / no-pme / no-psnr / no-ssim / log-level=2 / input-csp=1 / input-res=1920x1080 / interlace=0 / total-frames=60569 / level-idc=0 / high-tier=1 / uhd-bd=0 / ref=4 / no-allow-non-conformance / no-repeat-headers / annexb / no-aud / no-hrd / info / hash=0 / no-temporal-layers / open-gop / min-keyint=23 / keyint=250 / gop-lookahead=0 / bframes=8 / b-adapt=2 / b-pyramid / bframe-bias=0 / rc-lookahead=90 / lookahead-slices=4 / scenecut=40 / radl=0 / no-intra-refresh / ctu=64 / min-cu-size=8 / no-rect / no-amp / max-tu-size=32 / tu-inter-depth=1 / tu-intra-depth=1 / limit-tu=0 / rdoq-level=2 / dynamic-rd=0.00 / no-ssim-rd / signhide / no-tskip / nr-intra=0 / nr-inter=0 / no-constrained-intra / no-strong-intra-smoothing / max-merge=3 / limit-refs=3 / limit-modes / me=3 / subme=3 / merange=57 / temporal-mvp / weightp / no-weightb / no-analyze-src-pics / deblock=3:3 / no-sao / no-sao-non-deblock / rd=4 / no-early-skip / rskip / no-fast-intra / no-tskip-fast / no-cu-lossless / no-b-intra / no-splitrd-skip / rdpenalty=0 / psy-rd=1.00 / psy-rdoq=1.00 / no-rd-refine / no-lossless / cbqpoffs=3 / crqpoffs=3 / rc=crf / crf=23.0 / qcomp=0.50 / qpstep=4 / stats-write=0 / stats-read=0 / ipratio=1.40 / pbratio=1.30 / aq-mode=3 / aq-strength=1.00 / cutree / zone-count=0 / no-strict-cbr / qg-size=32 / no-rc-grain / qpmax=69 / qpmin=0 / no-const-vbv / sar=0 / overscan=0 / videoformat=5 / range=0 / colorprim=2 / transfer=2 / colormatrix=2 / chromaloc=0 / display-window=0 / max-cll=0,0 / min-luma=0 / max-luma=1023 / log2-max-poc-lsb=8 / vui-timing-info / vui-hrd-info / slices=1 / no-opt-qp-pps / no-opt-ref-list-length-pps / no-multi-pass-opt-rps / scenecut-bias=0.05 / no-opt-cu-delta-qp / aq-motion / no-hdr / no-hdr-opt / no-dhdr10-opt / no-idr-recovery-sei / analysis-reuse-level=5 / scale-factor=0 / refine-intra=0 / refine-inter=0 / refine-mv=0 / no-limit-sao / ctu-info=0 / no-lowpass-dct / refine-mv-type=0 / copy-pic=1 / max-ausize-factor=1.0 / no-dynamic-refine / no-single-sei
Default                                  : Yes
Forced                                   : No

Audio
ID                                       : 2
Format                                   : AAC
Format/Info                              : Advanced Audio Codec
Format profile                           : LC
Codec ID                                 : A_AAC-2
Duration                                 : 42 min 6 s
Bit rate                                 : 448 kb/s
Channel(s)                               : 6 channels
Channel positions                        : Front: L C R, Side: L R, LFE
Sampling rate                            : 48.0 kHz
Frame rate                               : 46.875 FPS (1024 SPF)
Compression mode                         : Lossy
Delay relative to video                  : 9 ms
Stream size                              : 135 MiB (10%)
Default                                  : Yes
Forced                                   : No

Text
ID                                       : 1
Format                                   : UTF-8
Codec ID                                 : S_TEXT/UTF8
Codec ID/Info                            : UTF-8 Plain Text
Duration                                 : 41 min 58 s
Bit rate                                 : 60 b/s
Count of elements                        : 696
Stream size                              : 18.6 KiB (0%)
Default                                  : Yes
Forced                                   : No

We have no issue with individuals posting or re-uploading our torrents on a platform we aren't on. However, if this is something you'd like to do, please do so in a 'as-is' format. We ask that you do not create a new torrent, include all descriptions you see above including the UTR logo, tags, notes and screenshots. If you'd like to become a permanent poster on a website we don't post to, feel free to get in contact with a UniTeam member.




Category:TV > HEVC/x265
Lang:English  English
Total Size:1.26 GB
Info Hash:ae4bf2748c1512e2ce0eaa2cc47967f67cfcd80c
Added By:UTR
Date Added:17-05-2018 05:30:30

Files

File List: 
 File Size
The 100 S05E04 Pandoras Box 1080p AMZN WEBRip x265 AAC 5.1 D0ct0rLew[UTR].mkv1.26 GB



Loading...
Comments

There are currently no comments. Be the first one to write something !

Disclaimer: None of the files shown here are actually hosted or transmitted by this server. The links are provided solely by this site's users. The site moderation is also a service provided by the site's users. The administrator of this site (ettv.tv) cannot be held responsible for what its users post, or any other actions of its users. You may not use this site to distribute or download any material when you do not have the legal rights to do so. It is your own responsibility to adhere to these terms.