greys anatomy Preacher s03e08 killjoys yellowstone s01e07 Elementary s06e15 tag 2018 motogp Queen of the south arrow español suits evo Deadpool etmovies Shooter the 100 ita fear the walking dead lucky man Insecure fgt the affair power ethd BETTER CALL SAUL westworld judge judy S22 LESBIAN ANAL SEX SLAVES big bang theory español unforgotten Dtone Survivor preacher Lucifer GOTHAM The flash The Affair S04E09 talking dead ddr The Walking Dead quantico Jurassic World Fallen Kingdom ettv deadpool 2 2018 Ready Player One Avengers infinity war Ethd Avengers etrg deadpool 2 2018 ita sharp objects s01e06 cloak and dagger last week tonight Hindi tag ballers star trek discovery español jack irish Who is america yellowstone dtone Jurassic World elementary sharp objects voltron 
Warning! Use a VPN When Downloading Torrents!
Your IP Address is 141.101.132.24. Location is Netherlands
Your Internet Provider is tracking your torrent activity! Hide your IP ADDRESS with a VPN!
We strongly recommend using ExpressVPN to anonymize your torrenting. 30 Day Money Back Guarantee!
Try it Now!
ETTV Recommended TV Shows
Better.Call.Saul.S04E02.HDTV.x264-SVA[ettv] torrent
Salvation.S02E08.HDTV.x264-KILLERS[ettv] torrent
Elementary.S06E16.HDTV.x264-KILLERS[ettv] torrent
WWE RAW 2018 08 13 HDTV x264-Star [TJET] torrent

ETTV Recommended Xvid
Hostage X.2018.HDRip.XviD.AC3-EVO torrent
Patient.Zero.2018.HDRip.XviD.AC3-EVO torrent
Safe.2017.HDRip.XViD-ETRG torrent
Time.Trap.2018.BRRip.XviD.AC3-EVO torrent

ETTV Recommended HD
Avengers.Age.of.Ultron.2015.Multi.UHD.2160p.Blu-Ray.x265.HDR.ATMOS.7.1-DTOne torrent
Transporter-3.2008.UHD.2160p.Blu-ray.x265.HDR.Atmos.7.1-DTOne torrent
The.Last.Warrior.2018.BluRay.1080p.x264.DTS-HDMA.5.1-DTOne torrent
Marrowbone.2017.UHD.2160p.Blu-ray.x264.HDR.Atmos.7.1-DTOne torrent

ETTV Recommended Cam
Hotel Artemis 2018 HDCAM XViD AC3-ETRG torrent
Slenderman.2018.HDCAM.XViD.AC3-ETRG torrent
The.Spy.Who.Dumped.Me.2018.HDCAM.XViD.AC3-ETRG torrent
The Equalizer 2 2018 HDTS XViD AC3-ETRG torrent

ETTV Recommended Foreign
2036.Origin.Unknown.2018.Multi.Blu-ray.1080p.x264.DTS-HDMA.5.1-DTOne torrent
Action.Point.2018.Multi.1080p.Blu-ray.x264.DTS-HDMA.7.1-DTOne torrent
The.Leakers.2018.BluRay.1080p.x264.TrueHD.5.1-DTOne torrent
Deadpool.2.2018.The.Super.Duper.Cut.Multi.1080p.Blu-ray.x264.DTS-HDMA.7.1-DTOne torrent

Social

Download Torrent "Westworld S02E04 (1080p AMZN WEB-DL x265 HEVC 10bit AC3 5.1 Qman) [UTR]"

IMDB Details
Description:

N/A

Genre:

N/A

Download Torrent (Magnet)
Download Torrent (File)
Seeds: 90
Leechers: 17
Completed: 1,640 
Last Checked: 16-05-2018 18:02:49


Loading...
Details
Title:Westworld S02E04 (1080p AMZN WEB-DL x265 HEVC 10bit AC3 5.1 Qman) [UTR]
Description:





Media Information
General
Format                                   : Matroska
Format version                           : Version 4 / Version 2
File size                                : 4.22 GiB
Duration                                 : 1 h 13 min
Overall bit rate                         : 8 265 kb/s
Encoded date                             : UTC 2018-05-15 13:38:56
Writing application                      : mkvmerge v23.0.0 ('The Bride Said No') 64-bit
Writing library                          : libebml v1.3.6 + libmatroska v1.4.9

Video
ID                                       : 1
Format                                   : HEVC
Format/Info                              : High Efficiency Video Coding
Format profile                           : Main [email protected]@Main
Codec ID                                 : V_MPEGH/ISO/HEVC
Duration                                 : 1 h 13 min
Bit rate                                 : 7 623 kb/s
Width                                    : 1 920 pixels
Height                                   : 1 080 pixels
Display aspect ratio                     : 16:9
Frame rate mode                          : Constant
Frame rate                               : 23.976 (24000/1001) FPS
Color space                              : YUV
Chroma subsampling                       : 4:2:0
Bit depth                                : 10 bits
Bits/(Pixel*Frame)                       : 0.153
Stream size                              : 3.89 GiB (92%)
Writing library                          : x265 2.7+344-091f07265371:[Windows][MSVC 1914][64 bit] 10bit
Encoding settings                        : cpuid=1111039 / frame-threads=2 / numa-pools=4 / wpp / no-pmode / no-pme / no-psnr / no-ssim / log-level=2 / input-csp=1 / input-res=1920x1080 / interlace=0 / total-frames=105156 / level-idc=0 / high-tier=1 / uhd-bd=0 / ref=4 / no-allow-non-conformance / no-repeat-headers / annexb / no-aud / no-hrd / info / hash=0 / no-temporal-layers / open-gop / min-keyint=23 / keyint=250 / gop-lookahead=0 / bframes=8 / b-adapt=2 / b-pyramid / bframe-bias=0 / rc-lookahead=90 / lookahead-slices=4 / scenecut=40 / radl=0 / no-intra-refresh / ctu=64 / min-cu-size=8 / rect / no-amp / max-tu-size=32 / tu-inter-depth=1 / tu-intra-depth=1 / limit-tu=0 / rdoq-level=2 / dynamic-rd=0.00 / no-ssim-rd / signhide / no-tskip / nr-intra=0 / nr-inter=0 / no-constrained-intra / no-strong-intra-smoothing / max-merge=3 / limit-refs=3 / limit-modes / me=3 / subme=3 / merange=57 / temporal-mvp / weightp / no-weightb / no-analyze-src-pics / deblock=3:3 / no-sao / no-sao-non-deblock / rd=4 / no-early-skip / no-rskip / no-fast-intra / no-tskip-fast / no-cu-lossless / no-b-intra / no-splitrd-skip / rdpenalty=0 / psy-rd=1.10 / psy-rdoq=1.00 / no-rd-refine / no-lossless / cbqpoffs=3 / crqpoffs=3 / rc=crf / crf=19.5 / qcomp=0.60 / qpstep=4 / stats-write=0 / stats-read=0 / ipratio=1.40 / pbratio=1.30 / aq-mode=3 / aq-strength=0.80 / cutree / zone-count=0 / no-strict-cbr / qg-size=32 / no-rc-grain / qpmax=69 / qpmin=0 / no-const-vbv / sar=0 / overscan=0 / videoformat=5 / range=0 / colorprim=2 / transfer=2 / colormatrix=2 / chromaloc=0 / display-window=0 / max-cll=0,0 / min-luma=0 / max-luma=1023 / log2-max-poc-lsb=8 / vui-timing-info / vui-hrd-info / slices=1 / no-opt-qp-pps / no-opt-ref-list-length-pps / no-multi-pass-opt-rps / scenecut-bias=0.05 / no-opt-cu-delta-qp / no-aq-motion / no-hdr / no-hdr-opt / no-dhdr10-opt / no-idr-recovery-sei / analysis-reuse-level=5 / scale-factor=0 / refine-intra=0 / refine-inter=0 / refine-mv=0 / no-limit-sao / ctu-info=0 / no-lowpass-dct / refine-mv-type=0 / copy-pic=1 / max-ausize-factor=1.0 / no-dynamic-refine / no-single-sei
Language                                 : English
Default                                  : Yes
Forced                                   : No

Audio
ID                                       : 2
Format                                   : E-AC-3
Format/Info                              : Enhanced Audio Coding 3
Format settings, Endianness              : Big
Codec ID                                 : A_EAC3
Duration                                 : 1 h 13 min
Bit rate mode                            : Constant
Bit rate                                 : 640 kb/s
Channel(s)                               : 6 channels
Channel positions                        : Front: L C R, Side: L R, LFE
Sampling rate                            : 48.0 kHz
Frame rate                               : 187.500 FPS (256 spf)
Compression mode                         : Lossy
Delay relative to video                  : 19 ms
Stream size                              : 335 MiB (8%)
Language                                 : English
Default                                  : Yes
Forced                                   : No

Subtitle
ID                                       : 3
Format                                   : UTF-8
Codec ID                                 : S_TEXT/UTF8
Codec ID/Info                            : UTF-8 Plain Text
Duration                                 : 1 h 7 min
Bit rate                                 : 35 b/s
Count of elements                        : 662
Stream size                              : 17.3 KiB (0%)
Language                                 : English
Default                                  : Yes
Forced                                   : No

Menu
00:00:00.000                             : en:Ratings
00:00:01.627                             : en:Previously On
00:01:17.627                             : en:Studio Logo
00:01:22.627                             : en:Opening Credits
00:03:02.627                             : en:A far fetched conversation
00:08:37.627                             : en:Lawrence and the Man in Black come across the railroad
00:18:17.627                             : en:Bernard and Elsie go down below
00:21:16.627                             : en:Grace meets more people
00:28:38.627                             : en:Some progress
00:35:50.627                             : en:Craddock admires his new hardware
00:38:08.627                             : en:Bernard wakes up again
00:43:46.627                             : en:Death's decisions are final
00:51:17.627                             : en:A series of questions
00:58:45.627                             : en:Elsie and Bernard find the product of a secret test
01:08:07.627                             : en:Help going west
01:10:53.627                             : en:End Credits
01:12:04.627                             : en:Next On

Source Information
Release: Unknown Source/NO-GROUP



UTR wrote:

Note From UTR
We have no issue with individuals posting or re-uploading our torrents on a platform we aren't on. However, if this is something you'd like to do, please do so in a 'as-is' format. We ask that you do not create a new torrent, include all descriptions you see above including the UTR logo, tags, notes and screenshots. If you'd like to become a permanent poster on a website we don't post to, feel free to get in contact with a UniTeam member.

If possible please donate: BTC 1QA5fum5AyXvWzdVCkQzUNvw3Ef15fHRaR



Category:TV > HEVC/x265
Lang:English  English
Total Size:4.22 GB
Info Hash:20366a059213723b420926b044584d6f74f66ab7
Added By:UTR
Date Added:16-05-2018 18:02:46

Files

File List: 
 File Size
Westworld.S02E04.1080p.AMZN.WEB-DL.x265.10bit.EAC3.6.0-Qman[UTR].mkv4.22 GB



Loading...
Comments

There are currently no comments. Be the first one to write something !

Disclaimer: None of the files shown here are actually hosted or transmitted by this server. The links are provided solely by this site's users. The site moderation is also a service provided by the site's users. The administrator of this site (ettv.tv) cannot be held responsible for what its users post, or any other actions of its users. You may not use this site to distribute or download any material when you do not have the legal rights to do so. It is your own responsibility to adhere to these terms.