ddr better call saul condor judge judy S22 suits Game Of Thrones evo jurassic world dtone 1080p.BluRay.x264.DTS WiKi westworld IT.2017.720p.HC.HDRIP.x264.AC3 TiTAN Arrow.S06E02.HDTV.x264 LOL ettv sharp objects wwe fgt Condor 1080p who is america avengers avengers infinity war the 100 S.W.A.T.2017.S01E01.HDTV.x264 KILLERS ettv arrow español Wentworth voltron Preacher s03e08 Animal Kingdom ettv ELEMENTARY younger it 2017 the meg etmovies video maker survivor ethd the outpost Americas got talent deadpool 2 star trek discovery español Gotham hindi salvation fear the walking dead etrg mr robot en español big bang theory español upgrade Lucifer 720p BRRip x264 EVO preacher Castle Rock the walking dead deadpool LESBIAN ANAL SEX SLAVES Cloak and Dagger 
Warning! Use a VPN When Downloading Torrents!
Your IP Address is 46.161.61.194. Location is Belgium
Your Internet Provider is tracking your torrent activity! Hide your IP ADDRESS with a VPN!
We strongly recommend using ExpressVPN to anonymize your torrenting. 30 Day Money Back Guarantee!
Try it Now!
ETTV Recommended TV Shows
Suits.S08E05.HDTV.x264-SVA[ettv] torrent
Americas.Got.Talent.S13E13.WEB.x264-TBS[ettv] torrent
The.Sinner.S02E03.HDTV.x264-KILLERS[ettv] torrent
Yellowstone.2018.S01E08.WEBRip.x264-eSc[ettv] torrent

ETTV Recommended Xvid
Adrift.2018.HDRip.XviD.AC3-EVO torrent
First.Reformed.2018.BDRip.XviD.AC3-EVO torrent
Porcupine.Lake.2018.HDRip.XviD.AC3-EVO torrent
The.Guardian.Angel.2018.HDRip.XviD.AC3-EVO torrent

ETTV Recommended HD
The.Last.Warrior.2018.BluRay.1080p.x264.DTS-HDMA.5.1-DTOne torrent
The.Avengers.2012.Multi.Bluray.2160p.x265.HDR.Atmos.7.1-DTOne torrent
Upgrade.2018.1080p.WEB-DL.DD5.1.H264-CMRG[EtHD] torrent
American.Animals.2018.1080p.WEB-DL.DD5.1.H264-CMRG[EtHD] torrent

ETTV Recommended Cam
The.Spy.Who.Dumped.Me.2018.HDCAM.XViD.AC3-ETRG torrent
The Equalizer 2 2018 HDTS XViD AC3-ETRG torrent
Mission Impossible Fallout 2018 NEW HDCAM.XViD.AC3 ETRG torrent
The Meg 2018 New 1080p HDTC-X264-AAC-NeNi torrent

ETTV Recommended Foreign
Deadpool.2.2018.The.Super.Duper.Cut.Multi.1080p.Blu-ray.x264.DTS-HDMA.7.1-DTOne torrent
Jumanji.Welcome.To.The.Jungle.(2017).1080p.[Dual.Audio].[Org.DD].{Hindi+Eng.6Ch}.-~{DOOMSDAY}~-. torrent
Paisa Vasool (2017) 720p UNCUT HDRip x264 [Dual Audio] [Hindi DD 2.0 - Telugu 2.0] Exclusive By -=!Dr.STAR!=- torrent
Pirates.Of.The.Caribbean.Dead.Man's.Chest.(2006).1080p.[Dual.Audio].[Org.DD].{Hindi+Eng.6Ch}.-~{DOOMSDAY}~-. torrent

Social

Download Torrent "Bob's Burgers (2011) - S08E18 (1080p WEB-DL x265 HEVC 10bit AAC 5.1 ImE) [Q..."

IMDB Details
Description:

N/A

Genre:

N/A

Download Torrent (Magnet)
Download Torrent (File)
Seeds: 11
Leechers: 7
Completed: 289 
Last Checked: 16-05-2018 08:55:20


Loading...
Details
Title:Bob's Burgers (2011) - S08E18 (1080p WEB-DL x265 HEVC 10bit AAC 5.1 ImE) [Q...
Description:


Encode Screenshots (Click for full quality)







Media Information
General
Format                                   : Matroska
Format version                           : Version 4 / Version 2
File size                                : 213 MiB
Duration                                 : 22 min 26 s
Overall bit rate                         : 1 328 kb/s
Encoded date                             : UTC 2018-05-15 17:20:36
Writing application                      : mkvmerge v9.6.0 ('Slave To Your Mind') 64bit
Writing library                          : libebml v1.3.4 + libmatroska v1.4.5
Writing frontend                         : StaxRip v1.7.0.0

Video
ID                                       : 1
Format                                   : HEVC
Format/Info                              : High Efficiency Video Coding
Format profile                           : Main [email protected]@Main
Codec ID                                 : V_MPEGH/ISO/HEVC
Duration                                 : 22 min 26 s
Bit rate                                 : 1 005 kb/s
Width                                    : 1 920 pixels
Height                                   : 1 080 pixels
Display aspect ratio                     : 16:9
Frame rate mode                          : Constant
Frame rate                               : 23.976 (24000/1001) FPS
Color space                              : YUV
Chroma subsampling                       : 4:2:0
Bit depth                                : 10 bits
Bits/(Pixel*Frame)                       : 0.020
Stream size                              : 161 MiB (76%)
Title                                    : Encoded by: ImEverlasting
Writing library                          : x265 2.7+25-e1ed4d609b52:[Windows][MSVC 1914][64 bit] 10bit
Encoding settings                        : cpuid=1173503 / frame-threads=2 / numa-pools=4 / wpp / no-pmode / no-pme / no-psnr / no-ssim / log-level=2 / input-csp=1 / input-res=1920x1080 / interlace=0 / total-frames=32274 / level-idc=0 / high-tier=1 / uhd-bd=0 / ref=4 / no-allow-non-conformance / no-repeat-headers / annexb / no-aud / no-hrd / info / hash=0 / no-temporal-layers / open-gop / min-keyint=23 / keyint=250 / gop-lookahead=0 / bframes=8 / b-adapt=2 / b-pyramid / bframe-bias=0 / rc-lookahead=50 / lookahead-slices=4 / scenecut=40 / radl=0 / no-intra-refresh / ctu=64 / min-cu-size=8 / rect / no-amp / max-tu-size=32 / tu-inter-depth=1 / tu-intra-depth=1 / limit-tu=0 / rdoq-level=2 / dynamic-rd=0.00 / no-ssim-rd / signhide / no-tskip / nr-intra=0 / nr-inter=0 / no-constrained-intra / strong-intra-smoothing / max-merge=3 / limit-refs=3 / limit-modes / me=3 / subme=5 / merange=57 / temporal-mvp / weightp / no-weightb / no-analyze-src-pics / deblock=0:0 / sao / no-sao-non-deblock / rd=4 / no-early-skip / rskip / no-fast-intra / no-tskip-fast / no-cu-lossless / no-b-intra / no-splitrd-skip / rdpenalty=0 / psy-rd=2.00 / psy-rdoq=1.00 / no-rd-refine / no-lossless / cbqpoffs=0 / crqpoffs=0 / rc=abr / bitrate=1000 / qcomp=0.60 / qpstep=4 / stats-write=1 / stats-read=0 / slow-firstpass / ipratio=1.40 / pbratio=1.30 / aq-mode=1 / aq-strength=1.00 / cutree / zone-count=0 / no-strict-cbr / qg-size=32 / no-rc-grain / qpmax=69 / qpmin=0 / no-const-vbv / sar=0 / overscan=0 / videoformat=5 / range=0 / colorprim=2 / transfer=2 / colormatrix=2 / chromaloc=0 / display-window=0 / max-cll=0,0 / min-luma=0 / max-luma=1023 / log2-max-poc-lsb=8 / vui-timing-info / vui-hrd-info / slices=1 / no-opt-qp-pps / no-opt-ref-list-length-pps / no-multi-pass-opt-rps / scenecut-bias=0.05 / no-opt-cu-delta-qp / no-aq-motion / no-hdr / no-hdr-opt / no-dhdr10-opt / no-idr-recovery-sei / analysis-reuse-level=5 / scale-factor=0 / refine-intra=0 / refine-inter=0 / refine-mv=0 / no-limit-sao / ctu-info=0 / no-lowpass-dct / refine-mv-type=0 / copy-pic=1 / max-ausize-factor=1.0 / no-dynamic-refine / no-single-sei
Default                                  : Yes
Forced                                   : No

Audio
ID                                       : 2
Format                                   : AAC
Format/Info                              : Advanced Audio Codec
Format profile                           : LC
Codec ID                                 : A_AAC
Duration                                 : 22 min 26 s
Bit rate                                 : 320 kb/s
Channel(s)                               : 6 channels
Channel positions                        : Front: L C R, Side: L R, LFE
Sampling rate                            : 48.0 kHz
Frame rate                               : 46.875 FPS (1024 spf)
Compression mode                         : Lossy
Delay relative to video                  : 20 ms
Stream size                              : 51.4 MiB (24%)
Language                                 : English
Default                                  : No
Forced                                   : No

Subtitle
ID                                       : 3
Format                                   : UTF-8
Codec ID                                 : S_TEXT/UTF8
Codec ID/Info                            : UTF-8 Plain Text
Duration                                 : 22 min 23 s
Bit rate                                 : 138 b/s
Count of elements                        : 678
Stream size                              : 22.8 KiB (0%)
Language                                 : English
Default                                  : No
Forced                                   : No

Source Information
Release : Bob's.Burgers.S08E18.As.I.Walk.Through.the.Alley.of.the.Shadow.of.Ramps.1080p.WEB-DL.h264.8bit.EAC3.5.1-SiGMA.mkv (382.33 MBs)



Note from QxR:
Whilst we are happy for our releases to be re-posted on a platform we aren't on, please do so in an 'as-is' format. We ask that you do not create a new torrent, include all descriptions you see above including the QxR logo, tags, notes and screenshots. If you'd like to become a permanent poster on a website we don't post to, feel free to get in contact with a QxR member.
Category:TV > HEVC/x265
Lang:English  English
Total Size:213 MB
Info Hash:75c39b5522e8491919e45c489b14c6afd76f41b9
Added By:QxR
Date Added:16-05-2018 08:55:17

Files

File List: 
 File Size
Bob's Burgers (2011) - S08E18 - As I Walk Through the Alley of the Shadow of Ramps (1080p WEB-DL x265 ImE).mkv213 MB



Loading...
Comments

There are currently no comments. Be the first one to write something !

Disclaimer: None of the files shown here are actually hosted or transmitted by this server. The links are provided solely by this site's users. The site moderation is also a service provided by the site's users. The administrator of this site (ettv.tv) cannot be held responsible for what its users post, or any other actions of its users. You may not use this site to distribute or download any material when you do not have the legal rights to do so. It is your own responsibility to adhere to these terms.