Lucifer avengers dtone GOTHAM elementary s06e15 Salvation Upgrade Who Is America deadpool 2 ettv photoshop Upgrade 2018 Power hindi avengers infinity war better call saul s04e02 Wentworth Preacher s03e08 sharp objects s01e06 ballers LESBIAN ANAL SEX SLAVES The flash talking dead wwe evo jurassic world shooter deadpool BETTER CALL SAUL elementary Voltron the 100 judge judy S22 ethd survivor big bang theory español 2018 ita cloak and dagger arrow español suits wwe raw mr robot en español sharp objects star trek discovery español jack irish fear the walking dead preacher fgt infinity war etrg the walking dead S.W.A.T.2017.S01E01.HDTV.x264 KILLERS ettv  ddr Condor 1080p Dtone etmovies unforgotten Arrow deadpool 2 2018 westworld street outlaws Queen of the south 
Warning! Use a VPN When Downloading Torrents!
Your IP Address is 5.101.217.163. Location is Bulgaria
Your Internet Provider is tracking your torrent activity! Hide your IP ADDRESS with a VPN!
We strongly recommend using ExpressVPN to anonymize your torrenting. 30 Day Money Back Guarantee!
Try it Now!
ETTV Recommended TV Shows
Better.Call.Saul.S04E02.HDTV.x264-SVA[ettv] torrent
Australian.Survivor.S05E08.WEBRip+1080p.HDTV.h264-CRR torrent
Animal.Kingdom.US.S03E12.WEBRip.x264-TBS[ettv] torrent
Castle.Rock.S01E06.WEBRip.x264-PBS[ettv] torrent

ETTV Recommended Xvid
Adrift.2018.HDRip.XviD.AC3-EVO torrent
First.Reformed.2018.BDRip.XviD.AC3-EVO torrent
Porcupine.Lake.2018.HDRip.XviD.AC3-EVO torrent
The.Guardian.Angel.2018.HDRip.XviD.AC3-EVO torrent

ETTV Recommended HD
The.Last.Warrior.2018.BluRay.1080p.x264.DTS-HDMA.5.1-DTOne torrent
The.Avengers.2012.Multi.Bluray.2160p.x265.HDR.Atmos.7.1-DTOne torrent
Upgrade.2018.1080p.WEB-DL.DD5.1.H264-CMRG[EtHD] torrent
American.Animals.2018.1080p.WEB-DL.DD5.1.H264-CMRG[EtHD] torrent

ETTV Recommended Cam
The.Spy.Who.Dumped.Me.2018.HDCAM.XViD.AC3-ETRG torrent
The Equalizer 2 2018 HDTS XViD AC3-ETRG torrent
Mission Impossible Fallout 2018 NEW HDCAM.XViD.AC3 ETRG torrent
The Meg 2018 New 1080p HDTC-X264-AAC-NeNi torrent

ETTV Recommended Foreign
Deadpool.2.2018.The.Super.Duper.Cut.Multi.1080p.Blu-ray.x264.DTS-HDMA.7.1-DTOne torrent
Jumanji.Welcome.To.The.Jungle.(2017).1080p.[Dual.Audio].[Org.DD].{Hindi+Eng.6Ch}.-~{DOOMSDAY}~-. torrent
Paisa Vasool (2017) 720p UNCUT HDRip x264 [Dual Audio] [Hindi DD 2.0 - Telugu 2.0] Exclusive By -=!Dr.STAR!=- torrent
Pirates.Of.The.Caribbean.Dead.Man's.Chest.(2006).1080p.[Dual.Audio].[Org.DD].{Hindi+Eng.6Ch}.-~{DOOMSDAY}~-. torrent

Social

Download Torrent "Silicon Valley (2014) - S05E08 (1080p AMZN WEB-DL x265 HEVC 10bit EAC3 6.0 ..."

IMDB Details
Description:

Follows the struggle of Richard Hendricks, a Silicon Valley engineer trying to build his own company called Pied Piper.

Genre:

Comedy

Download Torrent (Magnet)
Download Torrent (File)
Seeds: 16
Leechers: 12
Completed: 660 
Last Checked: 15-05-2018 03:49:20


Loading...
Details
Title:Silicon Valley (2014) - S05E08 (1080p AMZN WEB-DL x265 HEVC 10bit EAC3 6.0 ...
Description:


Encode Screenshots (Click for full quality)







Media Information
General
Format                                   : Matroska
Format version                           : Version 4 / Version 2
File size                                : 514 MiB
Duration                                 : 30 min 15 s
Overall bit rate                         : 2 374 kb/s
Encoded date                             : UTC 2018-05-14 15:58:45
Writing application                      : mkvmerge v23.0.0 ('The Bride Said No') 64-bit
Writing library                          : libebml v1.3.6 + libmatroska v1.4.9

Video
ID                                       : 1
Format                                   : HEVC
Format/Info                              : High Efficiency Video Coding
Format profile                           : Main [email protected]@Main
Codec ID                                 : V_MPEGH/ISO/HEVC
Duration                                 : 30 min 15 s
Bit rate                                 : 1 732 kb/s
Width                                    : 1 920 pixels
Height                                   : 1 080 pixels
Display aspect ratio                     : 16:9
Frame rate mode                          : Constant
Frame rate                               : 23.976 (24000/1001) FPS
Color space                              : YUV
Chroma subsampling                       : 4:2:0
Bit depth                                : 10 bits
Bits/(Pixel*Frame)                       : 0.035
Stream size                              : 375 MiB (73%)
Writing library                          : x265 2.7+340-aa9102400f24:[Windows][GCC 8.0.1][64 bit] 10bit
Encoding settings                        : cpuid=1111039 / frame-threads=3 / numa-pools=12 / wpp / no-pmode / no-pme / no-psnr / no-ssim / log-level=2 / input-csp=1 / input-res=1920x1080 / interlace=0 / total-frames=43532 / level-idc=0 / high-tier=1 / uhd-bd=0 / ref=4 / no-allow-non-conformance / no-repeat-headers / annexb / no-aud / no-hrd / info / hash=0 / no-temporal-layers / open-gop / min-keyint=23 / keyint=250 / gop-lookahead=0 / bframes=8 / b-adapt=2 / b-pyramid / bframe-bias=0 / rc-lookahead=65 / lookahead-slices=4 / scenecut=40 / radl=0 / no-intra-refresh / ctu=64 / min-cu-size=8 / no-rect / no-amp / max-tu-size=32 / tu-inter-depth=1 / tu-intra-depth=1 / limit-tu=0 / rdoq-level=2 / dynamic-rd=0.00 / no-ssim-rd / signhide / no-tskip / nr-intra=0 / nr-inter=0 / no-constrained-intra / strong-intra-smoothing / max-merge=3 / limit-refs=3 / limit-modes / me=3 / subme=5 / merange=57 / temporal-mvp / weightp / weightb / no-analyze-src-pics / deblock=-1:-1 / sao / no-sao-non-deblock / rd=4 / no-early-skip / rskip / no-fast-intra / no-tskip-fast / no-cu-lossless / no-b-intra / no-splitrd-skip / rdpenalty=0 / psy-rd=1.65 / psy-rdoq=1.00 / no-rd-refine / no-lossless / cbqpoffs=0 / crqpoffs=0 / rc=crf / crf=22.0 / qcomp=0.60 / qpstep=4 / stats-write=0 / stats-read=0 / ipratio=1.40 / pbratio=1.30 / aq-mode=3 / aq-strength=1.00 / cutree / zone-count=0 / no-strict-cbr / qg-size=32 / no-rc-grain / qpmax=69 / qpmin=0 / no-const-vbv / sar=0 / overscan=0 / videoformat=5 / range=0 / colorprim=2 / transfer=2 / colormatrix=2 / chromaloc=0 / display-window=0 / max-cll=0,0 / min-luma=0 / max-luma=1023 / log2-max-poc-lsb=8 / vui-timing-info / vui-hrd-info / slices=1 / no-opt-qp-pps / no-opt-ref-list-length-pps / no-multi-pass-opt-rps / scenecut-bias=0.00 / no-opt-cu-delta-qp / aq-motion / no-hdr / no-hdr-opt / no-dhdr10-opt / no-idr-recovery-sei / analysis-reuse-level=5 / scale-factor=0 / refine-intra=0 / refine-inter=0 / refine-mv=0 / no-limit-sao / ctu-info=0 / no-lowpass-dct / refine-mv-type=0 / copy-pic=1 / max-ausize-factor=1.0 / no-dynamic-refine / no-single-sei
Default                                  : Yes
Forced                                   : No

Audio
ID                                       : 2
Format                                   : E-AC-3
Format/Info                              : Enhanced Audio Coding 3
Format settings, Endianness              : Big
Codec ID                                 : A_EAC3
Duration                                 : 30 min 15 s
Bit rate mode                            : Constant
Bit rate                                 : 640 kb/s
Channel(s)                               : 6 channels
Channel positions                        : Front: L C R, Side: L R, LFE
Sampling rate                            : 48.0 kHz
Frame rate                               : 187.500 FPS (256 spf)
Compression mode                         : Lossy
Delay relative to video                  : 15 ms
Stream size                              : 139 MiB (27%)
Language                                 : English
Default                                  : No
Forced                                   : No

Subtitle #1
ID                                       : 3
Format                                   : UTF-8
Codec ID                                 : S_TEXT/UTF8
Codec ID/Info                            : UTF-8 Plain Text
Duration                                 : 30 min 3 s
Bit rate                                 : 90 b/s
Count of elements                        : 671
Stream size                              : 20.0 KiB (0%)
Language                                 : English
Default                                  : No
Forced                                   : No

Subtitle #2
ID                                       : 4
Format                                   : UTF-8
Codec ID                                 : S_TEXT/UTF8
Codec ID/Info                            : UTF-8 Plain Text
Duration                                 : 30 min 3 s
Bit rate                                 : 100 b/s
Count of elements                        : 738
Stream size                              : 22.1 KiB (0%)
Title                                    : SDH
Language                                 : English
Default                                  : No
Forced                                   : No

Source Information
Release : Silicon.Valley.S05E08.1080p.WEB.H264-DEFLATE.mkv (1.79 GBs)



Note from QxR:
Whilst we are happy for our releases to be re-posted on a platform we aren't on, please do so in an 'as-is' format. We ask that you do not create a new torrent, include all descriptions you see above including the QxR logo, tags, notes and screenshots. If you'd like to become a permanent poster on a website we don't post to, feel free to get in contact with a QxR member.
Category:TV > HEVC/x265
Lang:English  English
Total Size:514 MB
Info Hash:77d2834ba6c956fb7e5a6ca20a60672cb0be8834
Added By:QxR
Date Added:15-05-2018 03:49:16

Files

File List: 
 File Size
Silicon Valley (2014) - S05E08 - Fifty-One Percent (1080p AMZN WEB-DL x265 RZeroX).mkv514 MB



Loading...
Comments

There are currently no comments. Be the first one to write something !

Disclaimer: None of the files shown here are actually hosted or transmitted by this server. The links are provided solely by this site's users. The site moderation is also a service provided by the site's users. The administrator of this site (ettv.tv) cannot be held responsible for what its users post, or any other actions of its users. You may not use this site to distribute or download any material when you do not have the legal rights to do so. It is your own responsibility to adhere to these terms.